<?xml version="1.0" standalone="no"?>
<!DOCTYPE svg PUBLIC "-//W3C//DTD SVG 1.1//EN" "http://www.w3.org/Graphics/SVG/1.1/DTD/svg11.dtd" >
<svg xmlns="http://www.w3.org/2000/svg" xmlns:xlink="http://www.w3.org/1999/xlink" version="1.1">
<metadata></metadata>
<defs>
<font id="fb_alfibold" horiz-adv-x="756" >
<font-face units-per-em="2048" ascent="1638" descent="-410" />
<missing-glyph horiz-adv-x="466" />
<glyph unicode="&#xd;" horiz-adv-x="512" />
<glyph unicode=" "  horiz-adv-x="466" />
<glyph unicode="&#x09;" horiz-adv-x="466" />
<glyph unicode="&#xa0;" horiz-adv-x="466" />
<glyph unicode="!" horiz-adv-x="663" d="M487 844q0 -60 -11.5 -116t-27.5 -105l-58 -199h-133l-51 197q-14 48 -23.5 105.5t-9.5 117.5v239q0 54 34.5 78.5t115.5 24.5q84 0 124 -21.5t40 -81.5v-239zM501 133q0 -39 -13 -69.5t-36 -51.5t-55 -32t-70 -11q-84 0 -124 45t-40 119q0 78 38.5 124t125.5 46 t130.5 -47t43.5 -123z" />
<glyph unicode="&#x22;" horiz-adv-x="702" d="M651 1018q0 -114 -56 -197q-54 -81 -149 -157l-63 57q48 51 59 93t11 77q0 19 -16 51q-15 33 -30 51q-16 23 -22 46.5t-6 52.5q0 51 36 83q36 33 83 33q71 0 112 -54q41 -55 41 -136zM315 1018q0 -106 -56 -192q-55 -84 -140 -162l-64 57q23 28 38 50.5t20 41.5 q12 37 12 78q0 15 -18 50q-8 17 -16 30t-15 22q-31 46 -31 99q0 51 38 83q37 33 85 33q70 0 108 -54q39 -54 39 -136z" />
<glyph unicode="#" horiz-adv-x="1286" d="M1222 674h-201l-32 -203h168v-231h-203l-33 -240h-250l35 240h-221l-37 -240h-250l35 240h-168v231h203l30 203h-170v231h205l33 236h252l-37 -236h223l37 236h248l-37 -236h170v-231zM770 674h-222l-30 -203h221z" />
<glyph unicode="$" horiz-adv-x="1062" d="M941 336q0 -77 -26.5 -136t-71.5 -100t-106 -65.5t-130 -32.5v-121h-192v127q-44 4 -78.5 10.5t-65 14t-61.5 16.5t-67 19v229h4q186 -70 346 -70q48 0 80 18.5t32 53.5q0 21 -6 37t-19.5 30.5t-37 27.5t-57.5 28q-107 43 -177.5 87t-112 93.5t-58.5 106t-17 125.5 q0 120 80 200q79 79 215 99v137h192v-133q132 -15 248 -50v-231h-4q-72 23 -143.5 42.5t-149.5 19.5q-60 0 -88 -20.5t-28 -55.5q0 -29 21.5 -50.5t51.5 -37.5q33 -19 74.5 -37.5t89.5 -40.5q47 -23 93.5 -52.5t84 -69.5t61 -93.5t23.5 -124.5z" />
<glyph unicode="%" horiz-adv-x="1867" d="M1739 330q0 -72 -21.5 -136.5t-64.5 -113.5t-107.5 -78t-150.5 -29q-88 0 -153.5 30.5t-108.5 80.5t-64.5 114t-21.5 132q0 70 22.5 134t66.5 112.5t109 77t150 28.5q88 0 152.5 -30.5t107 -80t63.5 -113t21 -128.5zM1470 1194l-794 -1194h-281l797 1194h278zM821 874 q0 -67 -22.5 -130.5t-66 -112.5t-107.5 -79t-148 -30q-88 0 -153.5 30.5t-108.5 80t-64.5 113t-21.5 128.5q0 71 22 136t65.5 114.5t109 79t151.5 29.5q88 0 152.5 -31.5t107 -82.5t63.5 -115t21 -130zM1487 330q0 24 -2.5 53.5t-11.5 55t-27.5 42.5t-50.5 17 q-33 0 -51.5 -17t-27.5 -42.5t-11 -55t-2 -53.5q0 -25 2 -55t11 -56.5t27.5 -44.5t51.5 -18q32 0 50.5 17.5t27.5 44t11.5 56.5t2.5 56zM567 874q0 25 -2 55.5t-11 57t-27 44.5t-50 18q-33 0 -52 -17.5t-29 -44t-12.5 -57t-2.5 -56.5q0 -66 22 -116q22 -51 74 -51 q32 0 50 17t27 42.5t11 54.5t2 53z" />
<glyph unicode="&#x26;" horiz-adv-x="1521" d="M1419 158q-20 -85 -108 -149q-86 -64 -174 -64q-89 0 -174 55q-53 34 -138 117q-181 -172 -405 -172q-142 0 -227 75q-91 79 -91 218q0 233 295 401l72 41q-68 141 -68 256q0 131 76 216q79 91 207 91q110 0 180 -58q74 -62 74 -169q0 -195 -287 -324q122 -224 244 -385 q172 212 172 338q0 52 -39 72q-21 11 -82 16v39h400v-39q-32 -4 -54.5 -9.5t-36.5 -12.5q-50 -24 -84 -88l-47 -88q-74 -140 -186 -281q20 -23 40.5 -44.5t43.5 -41.5q97 -88 201 -88q60 0 100 29q13 10 30.5 27.5t39.5 43.5zM840 1022q0 34 -10.5 63.5t-29.5 51t-46.5 33.5 t-61.5 12q-143 0 -143 -164q0 -106 74 -266q88 51 135 96q82 78 82 174zM776 168q-128 167 -280 446q-220 -130 -220 -311q0 -108 66 -181q68 -77 174 -77q132 0 260 123z" />
<glyph unicode="'" horiz-adv-x="362" d="M308 1018q0 -114 -56 -197q-28 -42 -65 -80.5t-83 -76.5l-62 57q46 52 57 93q11 42 11 77q0 19 -16 51q-14 31 -29 51q-17 23 -23 46.5t-6 52.5q0 51 36 83q36 33 83 33q71 0 112 -54q41 -55 41 -136z" />
<glyph unicode="(" horiz-adv-x="692" d="M431 -324q-70 100 -125.5 201t-98.5 206q-85 207 -85 454q0 248 85 463q43 109 98.5 212t125.5 203h193q-57 -107 -100.5 -212.5t-72 -213.5t-43 -220t-14.5 -232q0 -123 15 -233.5t44 -214.5t72 -206t99 -207h-193z" />
<glyph unicode=")" horiz-adv-x="694" d="M571 537q0 -126 -22.5 -238.5t-64 -217t-98.5 -204.5t-126 -201h-193q57 108 100 211t71.5 207.5t43 213.5t14.5 229q0 126 -14.5 239t-43 219.5t-71.5 209.5t-100 210h193q140 -202 225 -415q86 -216 86 -463z" />
<glyph unicode="*" horiz-adv-x="1067" d="M990 1040l-311 -77l211 -258l-182 -134l-176 293l-170 -295l-189 133l217 261l-313 77l74 209l291 -123l-21 310h219l-18 -308l293 121z" />
<glyph unicode="+" horiz-adv-x="954" d="M915 412h-305v-303h-264v303h-303v262h303v307h264v-307h305v-262z" />
<glyph unicode="," horiz-adv-x="415" d="M317 160q0 -114 -56 -197q-28 -42 -65 -81t-83 -77l-62 58q46 52 57 93q11 42 11 77q0 18 -16 49q-8 16 -15 28.5t-14 22.5q-17 23 -23 45.5t-6 50.5q0 52 36 84q36 33 83 33q72 0 112.5 -50.5t40.5 -135.5z" />
<glyph unicode="-" horiz-adv-x="954" d="M862 414h-768v260h768v-260z" />
<glyph unicode="." horiz-adv-x="450" d="M352 135q0 -72 -43 -111.5t-113 -39.5q-73 0 -110 41t-37 110q0 72 34.5 115t112.5 43q76 0 116 -44t40 -114z" />
<glyph unicode="/" horiz-adv-x="663" d="M630 1292l-379 -1323h-231l377 1323h233z" />
<glyph unicode="0" horiz-adv-x="1064" d="M1022 571q0 -72 -9 -140.5t-28 -130t-49.5 -115t-73.5 -95.5q-54 -54 -141 -85.5t-195 -31.5q-109 0 -194 35.5t-139 95.5q-81 87 -116 212q-34 123 -34 251q0 136 38 268q37 129 126 218q54 54 138 85t190 31q111 0 196 -29t139 -83q86 -85 119 -211q33 -128 33 -275z M659 571v57.5t-4 76.5q-2 25 -8 61t-19.5 70t-36 58t-56.5 24q-29 0 -49.5 -16.5t-32.5 -41.5q-17 -33 -26 -74.5t-13 -83.5q-4 -40 -4 -76v-55v-56t4 -81q2 -24 7.5 -60t18.5 -69.5t35.5 -57.5t59.5 -24q45 0 70 43q26 45 38 100q6 29 9.5 58t4.5 58t1.5 51.5t0.5 37.5z " />
<glyph unicode="1" horiz-adv-x="1064" d="M829 0h-358v766q-33 -15 -66 -28.5t-68.5 -25t-76 -21t-88.5 -15.5v260q133 7 232 67q98 60 135 142h290v-1145z" />
<glyph unicode="2" horiz-adv-x="1064" d="M1017 0h-954q4 78 19 150.5t57 136.5q26 41 59 79t76 77.5t95.5 84t117.5 97.5q61 50 82 83q20 34 20 62q0 23 -7.5 45.5t-28.5 40t-58.5 28.5t-97.5 11q-36 0 -76.5 -9t-78.5 -22.5t-72 -28t-56 -26.5v276q30 19 68.5 35t82.5 26.5t92.5 16.5t98.5 6q242 0 377 -96 t135 -266q0 -41 -4 -79t-20.5 -77t-48.5 -82t-89 -92q-28 -22 -61 -51t-68 -57q-34 -29 -65 -55.5t-55 -55.5h460v-258z" />
<glyph unicode="3" horiz-adv-x="1064" d="M1008 352q0 -102 -45 -173.5t-120 -117.5t-172.5 -67t-201.5 -21q-102 0 -190 9q-44 4 -91.5 15t-99.5 28v270q75 -29 150.5 -45.5t150.5 -16.5q69 0 114.5 9.5t72.5 25.5t38 35.5t11 40.5q0 60 -56 92.5t-153 32.5h-185v248q34 -2 58.5 -3t44.5 -2t39 -1h43 q91 0 137.5 29t46.5 77t-49.5 78.5t-151.5 30.5q-28 0 -67 -3.5t-79 -10t-77.5 -15t-62.5 -18.5v239q35 13 76 22t88 16q48 7 92.5 10t87.5 3q86 0 174 -13t159.5 -48t116.5 -95.5t45 -154.5q0 -23 -8 -52.5t-27.5 -61.5t-52.5 -64.5t-82 -61.5q55 -16 97.5 -45.5t71 -66.5 t43 -77t14.5 -77z" />
<glyph unicode="4" horiz-adv-x="1064" d="M1040 248h-148v-248h-340v248h-528v217l457 674h411v-656h148v-235zM552 483v391l-258 -391h258z" />
<glyph unicode="5" horiz-adv-x="1064" d="M999 385q0 -104 -38.5 -181.5t-105.5 -128.5t-157.5 -76.5t-193.5 -25.5t-215 9q-111 7 -195 36v258q60 -18 134.5 -30.5t146.5 -12.5q145 0 208.5 35t63.5 97q0 65 -66 106q-65 41 -217 41q-72 0 -141 -11.5t-123 -17.5v2l27 656h798v-258h-471l-10 -152q25 2 50.5 2 h41.5q91 0 174.5 -18.5t147.5 -59.5t102.5 -107.5t38.5 -162.5z" />
<glyph unicode="6" horiz-adv-x="1064" d="M1020 391q0 -94 -37 -171t-102 -132t-154 -85t-193 -30q-132 0 -217 36t-139 102q-64 78 -93.5 193t-29.5 257q0 124 36.5 234t109 192.5t179.5 131t248 48.5q82 0 158 -7t139 -19v-252q-148 31 -276 31q-48 0 -92.5 -12t-78.5 -38t-54.5 -68.5t-20.5 -103.5 q61 25 111 39q49 15 121 15q84 0 154.5 -26.5t121.5 -74t80 -114t29 -146.5zM682 375q0 76 -43 113q-44 38 -97 38q-38 0 -78 -12t-67 -33q-6 -73 4 -122.5t29.5 -79.5t45 -43t50.5 -13q27 0 55 9.5t50.5 28t36.5 47t14 67.5z" />
<glyph unicode="7" horiz-adv-x="1064" d="M1030 938q-25 -23 -41.5 -42t-30.5 -36q-14 -18 -27.5 -37.5t-32.5 -44.5q-122 -164 -194 -364t-111 -414h-354q17 120 49.5 235.5t80.5 229.5q94 226 243 414h-545v262h963v-203z" />
<glyph unicode="8" horiz-adv-x="1064" d="M1024 334q0 -90 -40.5 -159t-108.5 -115.5t-157.5 -70.5t-187.5 -24q-107 0 -196.5 22.5t-154 67t-100.5 110t-36 152.5q0 105 60.5 173.5t168.5 111.5q-108 40 -147 107t-39 151q0 61 24.5 121t78 106.5t137 75.5t202.5 29q116 0 198.5 -26t135 -70.5t77 -102.5 t24.5 -121q0 -36 -14.5 -70t-39 -63.5t-56.5 -53t-67 -38.5q63 -30 108.5 -62.5t74 -70.5t42 -82.5t13.5 -97.5zM661 836q0 57 -34.5 95t-106.5 38q-60 0 -95.5 -30t-35.5 -79q0 -48 40 -73t151 -52q24 12 39.5 26t24.5 27.5t13 26t4 21.5zM686 334q0 85 -111 129 q-24 10 -49.5 17t-48.5 14q-53 -27 -76.5 -67t-23.5 -77q0 -58 33 -98q35 -41 120 -41q71 0 114 38q42 37 42 85z" />
<glyph unicode="9" horiz-adv-x="1064" d="M1008 580q0 -123 -32.5 -233.5t-102 -193.5t-178.5 -131.5t-263 -48.5q-82 0 -153.5 9.5t-126.5 31.5v240q26 -8 57.5 -14t66.5 -11q36 -4 70 -6t66 -2q47 0 92 11t80 37t56 68.5t21 104.5q-63 -24 -120.5 -37.5t-128.5 -13.5q-83 0 -151 26t-116.5 73t-75 113t-26.5 147 q0 94 28.5 170.5t86 131.5t144 85t202.5 30q167 0 274 -62q108 -62 160 -159q41 -74 55.5 -163t14.5 -203zM657 659q9 67 0.5 115.5t-29 80.5t-50 47.5t-62.5 15.5q-66 0 -106.5 -38t-40.5 -110q0 -76 45 -116q44 -40 98 -40q39 0 78 14.5t67 30.5z" />
<glyph unicode=":" horiz-adv-x="528" d="M401 829q0 -36 -11.5 -64t-32.5 -48t-49.5 -30.5t-61.5 -10.5q-76 0 -113 40.5t-37 112.5t36 115t114 43q75 0 115 -44t40 -114zM401 145q0 -72 -44 -111.5t-111 -39.5q-76 0 -113 41t-37 110q0 72 36 115t114 43q75 0 115 -43t40 -115z" />
<glyph unicode=";" horiz-adv-x="514" d="M386 829q0 -72 -43.5 -112.5t-112.5 -40.5q-73 0 -110 40.5t-37 112.5t34.5 115t112.5 43q76 0 116 -44t40 -114zM374 211q0 -114 -56 -197q-55 -81 -147 -157l-63 57q21 24 34 44.5t21 40t11 39t3 42.5q0 17 -17 51q-17 33 -30 51q-29 44 -29 99q0 51 36 83q36 33 83 33 q37 0 66 -13.5t48.5 -38.5t29.5 -59t10 -75z" />
<glyph unicode="&#x3c;" horiz-adv-x="954" d="M915 47l-872 416v199l872 413v-291l-505 -223l505 -242v-272z" />
<glyph unicode="=" horiz-adv-x="954" d="M897 645h-838v273h838v-273zM897 188h-838v273h838v-273z" />
<glyph unicode="&#x3e;" horiz-adv-x="954" d="M915 475l-872 -414v291l504 221l-504 224v293l872 -416v-199z" />
<glyph unicode="?" horiz-adv-x="915" d="M763 870q0 -77 -51 -153q-52 -77 -121 -135q-29 -25 -51.5 -46.5t-37.5 -38.5q-29 -35 -48 -75h-176q-2 13 -4 23t-4 18t-3 16.5t-1 20.5q0 69 28 120t76 93q31 26 53.5 60t22.5 63q0 43 -36 79q-36 37 -97 37q-47 0 -84 -24q-19 -11 -33 -22t-24 -21l-109 196 q50 41 134 72t175 31q176 0 283 -77q108 -77 108 -237zM548 133q0 -39 -13 -69.5t-36 -51.5t-55 -32t-70 -11q-84 0 -124 45t-40 119q0 78 38.5 124t125.5 46t130.5 -47t43.5 -123z" />
<glyph unicode="@" horiz-adv-x="1697" d="M1517 741q0 -167 -103 -315q-113 -168 -272 -168q-70 0 -121 39q-52 39 -53 109q-22 -61 -85 -105q-61 -43 -124 -43q-109 0 -176 72q-66 73 -66 182q0 149 116 279q115 129 261 129q135 0 168 -113q52 89 139 94q29 2 29 -24q0 -5 -2 -15l-39 -119q-90 -282 -90 -340 q0 -15 6.5 -29t17 -24.5t25 -17t29.5 -6.5q118 0 202 153q70 130 70 260q0 203 -160 324q-146 113 -356 113q-254 0 -447 -175q-196 -180 -196 -432q0 -244 176 -393q164 -137 414 -137q86 0 188 24q133 33 266 121q16 11 27 11q27 0 27 -27q0 -22 -19 -35 q-116 -80 -256 -123q-117 -37 -260 -37q-271 0 -471 160q-217 169 -217 434q0 295 235 494q221 184 525 184q237 0 407 -129q185 -141 185 -375zM1023 752q0 100 -100 100q-102 0 -181 -156q-67 -133 -67 -245q0 -127 110 -127q98 0 175 170q63 142 63 258z" />
<glyph unicode="[" horiz-adv-x="722" d="M694 -381h-539v1856h539v-226h-240v-1405h240v-225z" />
<glyph unicode="\" horiz-adv-x="800" d="M737 -137q6 -13 1 -21t-15 -4l-99 45q-19 7 -30 29l-574 1227q-10 20 0 25t27 -3l82 -45q22 -12 33 -35z" />
<glyph unicode="]" horiz-adv-x="743" d="M567 -381h-539v225h240v1405h-240v226h539v-1856z" />
<glyph unicode="^" horiz-adv-x="960" d="M892 467h-137l-275 582l-278 -582h-137l366 758q17 35 47 35t47 -35z" />
<glyph unicode="_" horiz-adv-x="1024" d="M1024 -229h-1024v90h1024v-90z" />
<glyph unicode="{" horiz-adv-x="749" d="M719 -381h-238q-59 0 -114.5 25.5t-98.5 67.5t-68.5 96.5t-25.5 113.5v420q0 49 -34 80t-130 31v184q46 3 77.5 13t50.5 25t27.5 34.5t8.5 40.5v421q0 58 25 113t67.5 97.5t98 68t116.5 25.5h238v-226h-179q-28 0 -47.5 -25.5t-19.5 -68.5v-379q0 -64 -44 -129 q-44 -63 -104 -104q62 -26 104 -92q44 -67 44 -144v-368q0 -42 19.5 -68.5t47.5 -26.5h179v-225z" />
<glyph unicode="|" horiz-adv-x="528" d="M354 -381h-180v1851h180v-1851z" />
<glyph unicode="}" horiz-adv-x="749" d="M739 453q-97 0 -131 -31q-33 -32 -33 -80v-420q0 -59 -26 -113.5t-68.5 -96.5t-98 -67.5t-114.5 -25.5h-240v225h180q29 0 48.5 26.5t19.5 68.5v368q0 72 42 137q43 67 105 107q-28 12 -54.5 35.5t-47 54.5t-33 65.5t-12.5 69.5v379q0 43 -19.5 68.5t-48.5 25.5h-180v226 h240q61 0 116.5 -25.5t98 -68t67.5 -97.5t25 -113v-421q0 -21 8 -40.5t27.5 -34.5t50.5 -25t78 -13v-184z" />
<glyph unicode="~" horiz-adv-x="1107" d="M1076 641q-40 -172 -119 -246q-70 -65 -161 -65q-89 0 -279 75q-189 76 -250 76q-128 0 -192 -186q-13 -37 -33 -37t-14 37q13 98 73 190q74 113 197 113q83 0 272 -73q190 -72 260 -72q74 0 125 61q38 44 70 127q17 41 37 41q16 0 16 -27q0 -4 -2 -14z" />
<glyph unicode="&#xa2;" horiz-adv-x="874" d="M769 299q-79 -319 -330 -319q-67 0 -137 30l-121 -334h-61l133 365q-143 135 -143 346q0 216 133 334q103 88 233 88q10 0 23 -0.5t30 -1.5l119 328h62l-123 -344q157 -72 157 -175q0 -71 -79 -71q-49 0 -74 33q-12 17 -21 59q-10 55 -16 65l-195 -538q79 -53 140 -53 q110 0 174 73q25 33 69 125zM507 739q-27 11 -51 11q-109 0 -164 -97q-45 -80 -45 -196q0 -117 67 -244z" />
<glyph unicode="&#xa3;" horiz-adv-x="874" d="M836 258q-15 -113 -72 -188q-68 -90 -174 -90q-72 0 -150 45q-15 9 -47 32t-82 60q-68 -137 -159 -137q-46 0 -73.5 31t-27.5 79q0 30 10.5 54.5t29.5 42t45 27t57 9.5q27 0 71 -6q1 6 2 15t2 22v29q0 74 -18 280h-166v82h166q-12 127 -12 170q0 225 159 324 q72 45 158 45q82 0 145 -45q72 -50 72 -129q0 -14 -5.5 -26.5t-15 -23t-21.5 -16.5t-25 -6q-33 0 -54 33q-9 12 -14 69q-4 51 -28.5 74t-73.5 23q-156 0 -156 -240q0 -29 2.5 -68.5t7.5 -91.5l8 -92h221v-82h-221q1 -20 1.5 -34t0.5 -23q0 -148 -53 -307q162 -54 191 -60 q43 -10 88 -10q141 0 180 137zM254 147q-38 23 -72 23q-82 0 -82 -74q0 -67 56 -67q70 0 98 118z" />
<glyph unicode="&#xa7;" horiz-adv-x="874" d="M741 412q0 -179 -188 -293q104 -116 104 -217q0 -103 -69 -173q-68 -71 -172 -71q-83 0 -150 56q-65 56 -65 136q0 15 5.5 28.5t14.5 24t21 17t26 6.5q64 0 64 -76q0 -14 -8 -46q-7 -29 -7 -46q0 -32 37 -51q31 -16 66 -16q58 0 104 43q47 44 47 98q0 109 -176 240 q-122 91 -174 153q-88 100 -88 205q0 175 189 291q-105 117 -105 221q0 101 69 172q70 70 173 70q86 0 151 -54q66 -53 66 -135q0 -77 -68 -77q-67 0 -67 67q0 11 6 40q6 28 6 42q0 80 -94 80q-62 0 -105 -43t-43 -107q0 -55 23 -90q38 -60 129 -125q125 -92 184 -157 q94 -104 94 -213zM655 332q0 119 -192 268q-37 29 -65 52t-48 42q-129 -78 -129 -190q0 -80 66 -158q20 -23 53.5 -51.5t79.5 -63.5q31 -23 56.5 -44.5t47.5 -41.5q131 78 131 187z" />
<glyph unicode="&#xa9;" horiz-adv-x="1335" d="M1274 580q0 -163 -82 -306q-83 -143 -226 -222q-142 -79 -298 -79q-163 0 -306 82q-143 83 -222 224q-79 142 -79 301q0 163 84 307q84 146 226 222q143 77 297 77q161 0 304 -81q144 -81 222 -220q80 -146 80 -305zM1223 580q0 150 -76 280q-77 132 -208 203 q-132 72 -271 72q-148 0 -278 -75t-202 -202q-73 -133 -73 -278q0 -148 74 -279q76 -132 205 -203q131 -71 274 -71q148 0 279 74q129 74 203 205q73 130 73 274zM999 369q-119 -174 -327 -174q-165 0 -281 107q-115 108 -115 273q0 175 127 287q121 109 299 109 q60 0 158 -33q21 -6 31 -6q27 0 43 37h35l16 -238h-33q-62 201 -260 201q-138 0 -215 -107q-59 -85 -59 -225q0 -354 282 -354q169 0 269 139z" />
<glyph unicode="&#xab;" horiz-adv-x="1024" d="M961 -8h-60l-393 473l393 469h60l-244 -469zM508 -8h-57l-388 473l388 469h57l-244 -469z" />
<glyph unicode="&#xad;" horiz-adv-x="954" d="M862 414h-768v260h768v-260z" />
<glyph unicode="&#xb6;" horiz-adv-x="792" d="M797 1112h-115v-1491h-61v1491h-160v-1491h-62v893q-137 6 -209 31q-108 34 -159 125q-43 74 -43 170q0 189 170 278q84 41 215 41h424v-47z" />
<glyph unicode="&#xb7;" horiz-adv-x="512" d="M367 678q0 -48 -31.5 -79.5t-79.5 -31.5q-45 0 -78 33t-33 78q0 48 31.5 79t79.5 31t79.5 -31t31.5 -79z" />
<glyph unicode="&#xbb;" horiz-adv-x="1024" d="M961 463l-388 -471h-57l244 471l-244 471h57zM516 463l-393 -471h-60l244 471l-244 471h60z" />
<glyph unicode="&#xbc;" horiz-adv-x="1312" d="M1283 123h-92v-158h-100v158h-293v61l319 398h74v-389h92v-70zM1103 1184l-799 -1231h-76l799 1231h76zM405 567h-277v29q74 0 82 18q4 9 4 64v319q0 87 -12 101q-5 4 -17 4q-17 0 -57 -17l-14 23l176 76h28v-506q0 -51 7 -64q10 -18 80 -18v-29zM1091 193v268l-224 -268 h224z" />
<glyph unicode="&#xbd;" horiz-adv-x="1312" d="M1277 96l-53 -131h-422v27q323 251 323 389q0 55 -35.5 89t-89.5 34q-103 0 -141 -101h-39q27 179 207 179q78 0 137 -41q68 -45 68 -119q0 -134 -293 -373h160q110 0 139 47h39zM1082 1184l-798 -1231h-76l799 1231h75zM405 567h-277v29q74 0 82 18q4 9 4 64v319 q0 87 -12 101q-5 4 -17 4q-17 0 -57 -17l-14 23l176 76h28v-506q0 -51 7 -64q10 -18 80 -18v-29z" />
<glyph unicode="&#xbe;" horiz-adv-x="1312" d="M1283 123h-92v-158h-100v158h-293v61l319 398h74v-389h92v-70zM1091 1184l-797 -1231h-76l799 1231h74zM445 770q0 -107 -92 -166q-79 -49 -192 -49q-125 0 -125 53q0 39 49 39q23 0 71 -21q49 -20 76 -20q47 0 82 33t35 80q0 145 -198 141v25q59 0 107 36q48 37 48 97 q0 94 -104 94q-73 0 -125 -76l-33 15q66 133 197 133q63 0 112 -31q58 -37 58 -96q0 -58 -90 -131q124 -45 124 -156zM1091 193v268l-222 -268h222z" />
<glyph unicode="&#xd7;" horiz-adv-x="987" d="M844 281l-49 -50l-303 304l-302 -304l-49 50l301 301l-301 301l52 49l299 -299l301 299l49 -47l-301 -301z" />
<glyph unicode="&#xf7;" horiz-adv-x="1124" d="M648 987q0 -18 -7 -33.5t-19 -27t-28 -18.5t-34 -7t-34 7t-28 18.5t-19 27t-7 33.5q0 37 25.5 62.5t62.5 25.5q39 0 63.5 -24.5t24.5 -63.5zM1101 641h-1079v82h1079v-82zM648 367q0 -37 -25.5 -62.5t-62.5 -25.5q-18 0 -34 7t-28 19t-19 28t-7 34t7 34t19 28t28 19t34 7 q39 0 63.5 -26t24.5 -62z" />
<glyph unicode="&#x591;" d="M657 770q0 -119 -83 -202t-203 -83q-118 0 -200 84q-83 85 -83 201q0 118 83 203q82 84 200 84q120 0 203 -84q83 -85 83 -203zM578 770q0 88 -60 148q-58 61 -147 61q-86 0 -146 -61q-59 -61 -59 -148q0 -84 59 -146q60 -61 146 -61q89 0 147 61q60 61 60 146z" />
<glyph unicode="&#x592;" d="M657 770q0 -119 -83 -202t-203 -83q-118 0 -200 84q-83 85 -83 201q0 118 83 203q82 84 200 84q120 0 203 -84q83 -85 83 -203zM578 770q0 88 -60 148q-58 61 -147 61q-86 0 -146 -61q-59 -61 -59 -148q0 -84 59 -146q60 -61 146 -61q89 0 147 61q60 61 60 146z" />
<glyph unicode="&#x593;" d="M657 770q0 -119 -83 -202t-203 -83q-118 0 -200 84q-83 85 -83 201q0 118 83 203q82 84 200 84q120 0 203 -84q83 -85 83 -203zM578 770q0 88 -60 148q-58 61 -147 61q-86 0 -146 -61q-59 -61 -59 -148q0 -84 59 -146q60 -61 146 -61q89 0 147 61q60 61 60 146z" />
<glyph unicode="&#x594;" d="M657 770q0 -119 -83 -202t-203 -83q-118 0 -200 84q-83 85 -83 201q0 118 83 203q82 84 200 84q120 0 203 -84q83 -85 83 -203zM578 770q0 88 -60 148q-58 61 -147 61q-86 0 -146 -61q-59 -61 -59 -148q0 -84 59 -146q60 -61 146 -61q89 0 147 61q60 61 60 146z" />
<glyph unicode="&#x595;" d="M657 770q0 -119 -83 -202t-203 -83q-118 0 -200 84q-83 85 -83 201q0 118 83 203q82 84 200 84q120 0 203 -84q83 -85 83 -203zM578 770q0 88 -60 148q-58 61 -147 61q-86 0 -146 -61q-59 -61 -59 -148q0 -84 59 -146q60 -61 146 -61q89 0 147 61q60 61 60 146z" />
<glyph unicode="&#x596;" d="M657 770q0 -119 -83 -202t-203 -83q-118 0 -200 84q-83 85 -83 201q0 118 83 203q82 84 200 84q120 0 203 -84q83 -85 83 -203zM578 770q0 88 -60 148q-58 61 -147 61q-86 0 -146 -61q-59 -61 -59 -148q0 -84 59 -146q60 -61 146 -61q89 0 147 61q60 61 60 146z" />
<glyph unicode="&#x597;" d="M657 770q0 -119 -83 -202t-203 -83q-118 0 -200 84q-83 85 -83 201q0 118 83 203q82 84 200 84q120 0 203 -84q83 -85 83 -203zM578 770q0 88 -60 148q-58 61 -147 61q-86 0 -146 -61q-59 -61 -59 -148q0 -84 59 -146q60 -61 146 -61q89 0 147 61q60 61 60 146z" />
<glyph unicode="&#x598;" d="M657 770q0 -119 -83 -202t-203 -83q-118 0 -200 84q-83 85 -83 201q0 118 83 203q82 84 200 84q120 0 203 -84q83 -85 83 -203zM578 770q0 88 -60 148q-58 61 -147 61q-86 0 -146 -61q-59 -61 -59 -148q0 -84 59 -146q60 -61 146 -61q89 0 147 61q60 61 60 146z" />
<glyph unicode="&#x599;" d="M657 770q0 -119 -83 -202t-203 -83q-118 0 -200 84q-83 85 -83 201q0 118 83 203q82 84 200 84q120 0 203 -84q83 -85 83 -203zM578 770q0 88 -60 148q-58 61 -147 61q-86 0 -146 -61q-59 -61 -59 -148q0 -84 59 -146q60 -61 146 -61q89 0 147 61q60 61 60 146z" />
<glyph unicode="&#x59a;" d="M657 770q0 -119 -83 -202t-203 -83q-118 0 -200 84q-83 85 -83 201q0 118 83 203q82 84 200 84q120 0 203 -84q83 -85 83 -203zM578 770q0 88 -60 148q-58 61 -147 61q-86 0 -146 -61q-59 -61 -59 -148q0 -84 59 -146q60 -61 146 -61q89 0 147 61q60 61 60 146z" />
<glyph unicode="&#x59b;" d="M657 770q0 -119 -83 -202t-203 -83q-118 0 -200 84q-83 85 -83 201q0 118 83 203q82 84 200 84q120 0 203 -84q83 -85 83 -203zM578 770q0 88 -60 148q-58 61 -147 61q-86 0 -146 -61q-59 -61 -59 -148q0 -84 59 -146q60 -61 146 -61q89 0 147 61q60 61 60 146z" />
<glyph unicode="&#x59c;" d="M657 770q0 -119 -83 -202t-203 -83q-118 0 -200 84q-83 85 -83 201q0 118 83 203q82 84 200 84q120 0 203 -84q83 -85 83 -203zM578 770q0 88 -60 148q-58 61 -147 61q-86 0 -146 -61q-59 -61 -59 -148q0 -84 59 -146q60 -61 146 -61q89 0 147 61q60 61 60 146z" />
<glyph unicode="&#x59d;" d="M657 770q0 -119 -83 -202t-203 -83q-118 0 -200 84q-83 85 -83 201q0 118 83 203q82 84 200 84q120 0 203 -84q83 -85 83 -203zM578 770q0 88 -60 148q-58 61 -147 61q-86 0 -146 -61q-59 -61 -59 -148q0 -84 59 -146q60 -61 146 -61q89 0 147 61q60 61 60 146z" />
<glyph unicode="&#x59e;" d="M657 770q0 -119 -83 -202t-203 -83q-118 0 -200 84q-83 85 -83 201q0 118 83 203q82 84 200 84q120 0 203 -84q83 -85 83 -203zM578 770q0 88 -60 148q-58 61 -147 61q-86 0 -146 -61q-59 -61 -59 -148q0 -84 59 -146q60 -61 146 -61q89 0 147 61q60 61 60 146z" />
<glyph unicode="&#x59f;" d="M657 770q0 -119 -83 -202t-203 -83q-118 0 -200 84q-83 85 -83 201q0 118 83 203q82 84 200 84q120 0 203 -84q83 -85 83 -203zM578 770q0 88 -60 148q-58 61 -147 61q-86 0 -146 -61q-59 -61 -59 -148q0 -84 59 -146q60 -61 146 -61q89 0 147 61q60 61 60 146z" />
<glyph unicode="&#x5a0;" d="M657 770q0 -119 -83 -202t-203 -83q-118 0 -200 84q-83 85 -83 201q0 118 83 203q82 84 200 84q120 0 203 -84q83 -85 83 -203zM578 770q0 88 -60 148q-58 61 -147 61q-86 0 -146 -61q-59 -61 -59 -148q0 -84 59 -146q60 -61 146 -61q89 0 147 61q60 61 60 146z" />
<glyph unicode="&#x5a1;" d="M657 770q0 -119 -83 -202t-203 -83q-118 0 -200 84q-83 85 -83 201q0 118 83 203q82 84 200 84q120 0 203 -84q83 -85 83 -203zM578 770q0 88 -60 148q-58 61 -147 61q-86 0 -146 -61q-59 -61 -59 -148q0 -84 59 -146q60 -61 146 -61q89 0 147 61q60 61 60 146z" />
<glyph unicode="&#x5a3;" d="M657 770q0 -119 -83 -202t-203 -83q-118 0 -200 84q-83 85 -83 201q0 118 83 203q82 84 200 84q120 0 203 -84q83 -85 83 -203zM578 770q0 88 -60 148q-58 61 -147 61q-86 0 -146 -61q-59 -61 -59 -148q0 -84 59 -146q60 -61 146 -61q89 0 147 61q60 61 60 146z" />
<glyph unicode="&#x5a4;" d="M657 770q0 -119 -83 -202t-203 -83q-118 0 -200 84q-83 85 -83 201q0 118 83 203q82 84 200 84q120 0 203 -84q83 -85 83 -203zM578 770q0 88 -60 148q-58 61 -147 61q-86 0 -146 -61q-59 -61 -59 -148q0 -84 59 -146q60 -61 146 -61q89 0 147 61q60 61 60 146z" />
<glyph unicode="&#x5a5;" d="M657 770q0 -119 -83 -202t-203 -83q-118 0 -200 84q-83 85 -83 201q0 118 83 203q82 84 200 84q120 0 203 -84q83 -85 83 -203zM578 770q0 88 -60 148q-58 61 -147 61q-86 0 -146 -61q-59 -61 -59 -148q0 -84 59 -146q60 -61 146 -61q89 0 147 61q60 61 60 146z" />
<glyph unicode="&#x5a6;" d="M657 770q0 -119 -83 -202t-203 -83q-118 0 -200 84q-83 85 -83 201q0 118 83 203q82 84 200 84q120 0 203 -84q83 -85 83 -203zM578 770q0 88 -60 148q-58 61 -147 61q-86 0 -146 -61q-59 -61 -59 -148q0 -84 59 -146q60 -61 146 -61q89 0 147 61q60 61 60 146z" />
<glyph unicode="&#x5a7;" d="M657 770q0 -119 -83 -202t-203 -83q-118 0 -200 84q-83 85 -83 201q0 118 83 203q82 84 200 84q120 0 203 -84q83 -85 83 -203zM578 770q0 88 -60 148q-58 61 -147 61q-86 0 -146 -61q-59 -61 -59 -148q0 -84 59 -146q60 -61 146 -61q89 0 147 61q60 61 60 146z" />
<glyph unicode="&#x5a8;" d="M657 770q0 -119 -83 -202t-203 -83q-118 0 -200 84q-83 85 -83 201q0 118 83 203q82 84 200 84q120 0 203 -84q83 -85 83 -203zM578 770q0 88 -60 148q-58 61 -147 61q-86 0 -146 -61q-59 -61 -59 -148q0 -84 59 -146q60 -61 146 -61q89 0 147 61q60 61 60 146z" />
<glyph unicode="&#x5a9;" d="M657 770q0 -119 -83 -202t-203 -83q-118 0 -200 84q-83 85 -83 201q0 118 83 203q82 84 200 84q120 0 203 -84q83 -85 83 -203zM578 770q0 88 -60 148q-58 61 -147 61q-86 0 -146 -61q-59 -61 -59 -148q0 -84 59 -146q60 -61 146 -61q89 0 147 61q60 61 60 146z" />
<glyph unicode="&#x5aa;" d="M657 770q0 -119 -83 -202t-203 -83q-118 0 -200 84q-83 85 -83 201q0 118 83 203q82 84 200 84q120 0 203 -84q83 -85 83 -203zM578 770q0 88 -60 148q-58 61 -147 61q-86 0 -146 -61q-59 -61 -59 -148q0 -84 59 -146q60 -61 146 -61q89 0 147 61q60 61 60 146z" />
<glyph unicode="&#x5ab;" d="M657 770q0 -119 -83 -202t-203 -83q-118 0 -200 84q-83 85 -83 201q0 118 83 203q82 84 200 84q120 0 203 -84q83 -85 83 -203zM578 770q0 88 -60 148q-58 61 -147 61q-86 0 -146 -61q-59 -61 -59 -148q0 -84 59 -146q60 -61 146 -61q89 0 147 61q60 61 60 146z" />
<glyph unicode="&#x5ac;" d="M657 770q0 -119 -83 -202t-203 -83q-118 0 -200 84q-83 85 -83 201q0 118 83 203q82 84 200 84q120 0 203 -84q83 -85 83 -203zM578 770q0 88 -60 148q-58 61 -147 61q-86 0 -146 -61q-59 -61 -59 -148q0 -84 59 -146q60 -61 146 -61q89 0 147 61q60 61 60 146z" />
<glyph unicode="&#x5ad;" d="M657 770q0 -119 -83 -202t-203 -83q-118 0 -200 84q-83 85 -83 201q0 118 83 203q82 84 200 84q120 0 203 -84q83 -85 83 -203zM578 770q0 88 -60 148q-58 61 -147 61q-86 0 -146 -61q-59 -61 -59 -148q0 -84 59 -146q60 -61 146 -61q89 0 147 61q60 61 60 146z" />
<glyph unicode="&#x5ae;" d="M657 770q0 -119 -83 -202t-203 -83q-118 0 -200 84q-83 85 -83 201q0 118 83 203q82 84 200 84q120 0 203 -84q83 -85 83 -203zM578 770q0 88 -60 148q-58 61 -147 61q-86 0 -146 -61q-59 -61 -59 -148q0 -84 59 -146q60 -61 146 -61q89 0 147 61q60 61 60 146z" />
<glyph unicode="&#x5af;" d="M657 770q0 -119 -83 -202t-203 -83q-118 0 -200 84q-83 85 -83 201q0 118 83 203q82 84 200 84q120 0 203 -84q83 -85 83 -203zM578 770q0 88 -60 148q-58 61 -147 61q-86 0 -146 -61q-59 -61 -59 -148q0 -84 59 -146q60 -61 146 -61q89 0 147 61q60 61 60 146z" />
<glyph unicode="&#x5b0;" horiz-adv-x="2" d="M88 -243q0 -18 -7 -33.5t-18.5 -27t-27 -18.5t-33.5 -7t-34 7t-28 18.5t-19 27t-7 33.5t7.5 33t19.5 26.5t28 18t33 6.5q37 0 61.5 -24.5t24.5 -59.5zM88 -512q0 -17 -7 -32.5t-18.5 -27.5t-27 -19t-33.5 -7t-34 7t-28 19t-19 27.5t-7 32.5q0 18 7.5 33t19.5 26.5t28 18 t33 6.5q37 0 61.5 -24.5t24.5 -59.5z" />
<glyph unicode="&#x5b1;" horiz-adv-x="2" d="M-137 -243q0 -18 -7 -33.5t-18.5 -27t-27 -18.5t-33.5 -7q-17 0 -32.5 6.5t-27.5 18t-19 27.5t-7 34q0 16 7 31.5t18.5 27t27 18.5t33.5 7q37 0 61.5 -24.5t24.5 -59.5zM98 -243q0 -18 -7 -33.5t-18.5 -27t-27 -18.5t-33.5 -7q-17 0 -32.5 7t-27.5 18.5t-19.5 27 t-7.5 33.5q0 34 28 59q26 25 59 25q37 0 61.5 -23.5t24.5 -60.5zM-10 -450q0 -18 -7 -33.5t-18.5 -27t-27 -18.5t-33.5 -7q-17 0 -32.5 6.5t-27.5 18t-19 27.5t-7 34q0 35 25.5 59.5t60.5 24.5t60.5 -24.5t25.5 -59.5zM311 -243q0 -15 -6 -27.5t-16.5 -22t-23.5 -15 t-27 -5.5q-70 0 -70 70q0 74 70 74q73 0 73 -74zM311 -458q0 -29 -21.5 -50.5t-51.5 -21.5q-70 0 -70 72q0 30 20.5 50.5t49.5 20.5q73 0 73 -71z" />
<glyph unicode="&#x5b2;" horiz-adv-x="2" d="M287 -243q0 -29 -22.5 -49.5t-51.5 -20.5q-70 0 -70 70q0 74 70 74q74 0 74 -74zM287 -458q0 -29 -21.5 -50.5t-52.5 -21.5q-70 0 -70 72q0 71 70 71q74 0 74 -71zM-258 -305q-26 0 -26 31v66q0 30 26 30h301q27 0 27 -30v-66q0 -31 -27 -31h-301z" />
<glyph unicode="&#x5b3;" horiz-adv-x="2" d="M287 -243q0 -29 -22.5 -49.5t-51.5 -20.5q-70 0 -70 70q0 74 70 74q33 0 53.5 -20.5t20.5 -53.5zM287 -458q0 -29 -21.5 -50.5t-52.5 -21.5q-70 0 -70 72q0 71 70 71q74 0 74 -71zM43 -178q27 0 27 -30v-66q0 -31 -27 -31h-118q0 -42 20 -88l23 -51q8 -18 8 -35 t-6.5 -31.5t-18 -26t-26.5 -18t-33 -6.5t-33 6.5t-26.5 18t-18 26t-6.5 31.5t8 35l23 51q22 48 22 88h-119q-26 0 -26 31v66q0 30 26 30h301z" />
<glyph unicode="&#x5b4;" horiz-adv-x="2" d="M92 -243q0 -35 -28 -62q-27 -28 -62 -28q-36 0 -64 28q-28 27 -28 62q0 18 7.5 34t20.5 28t29.5 19t34.5 7q39 0 64.5 -25.5t25.5 -62.5z" />
<glyph unicode="&#x5b5;" horiz-adv-x="2" d="M-45 -243q0 -18 -7 -33.5t-18.5 -27t-27 -18.5t-33.5 -7q-17 0 -32.5 7t-27.5 18.5t-19 27t-7 33.5t7 33t19 26.5t27.5 18t32.5 6.5q86 0 86 -84zM219 -243q0 -18 -7 -33.5t-18.5 -27t-27 -18.5t-33.5 -7t-33.5 7t-27 18.5t-18.5 27t-7 33.5q0 35 25.5 59.5t60.5 24.5 q37 0 61.5 -24.5t24.5 -59.5z" />
<glyph unicode="&#x5b6;" horiz-adv-x="2" d="M-45 -243q0 -18 -7 -33.5t-18.5 -27t-27 -18.5t-33.5 -7q-17 0 -32.5 7t-27.5 18.5t-19 27t-7 33.5t7 33t19 26.5t27.5 18t32.5 6.5q86 0 86 -84zM219 -243q0 -18 -7 -33.5t-18.5 -27t-27 -18.5t-33.5 -7t-33.5 7t-27 18.5t-18.5 27t-7 33.5q0 35 25.5 59.5t60.5 24.5 q37 0 61.5 -24.5t24.5 -59.5zM94 -468q0 -18 -7 -33.5t-18.5 -27.5t-27 -19t-33.5 -7q-17 0 -32.5 7t-27 19t-18.5 27.5t-7 33.5q0 34 25.5 58.5t59.5 24.5q37 0 61.5 -24.5t24.5 -58.5z" />
<glyph unicode="&#x5b7;" horiz-adv-x="2" d="M-190 -305q-27 0 -27 31v66q0 30 27 30h383q26 0 26 -30v-66q0 -31 -26 -31h-383z" />
<glyph unicode="&#x5b8;" horiz-adv-x="2" d="M193 -178q26 0 26 -30v-66q0 -31 -26 -31h-158q0 -48 18 -88l23 -51q8 -18 8 -35q0 -35 -24.5 -58.5t-57.5 -23.5q-17 0 -32 6.5t-26.5 18t-18 26t-6.5 31.5t8 35l22 51q21 45 21 88h-160q-27 0 -27 31v66q0 30 27 30h383z" />
<glyph unicode="&#x5b9;" horiz-adv-x="2" d="M90 1322q0 -18 -7 -33.5t-18.5 -27t-27 -18.5t-33.5 -7q-17 0 -32.5 7t-27.5 18.5t-19 27t-7 33.5q0 16 7 31.5t19 27t27.5 18.5t32.5 7q39 0 62.5 -23.5t23.5 -60.5z" />
<glyph unicode="&#x5bb;" horiz-adv-x="2" d="M92 -243q0 -18 -7 -33.5t-18.5 -27t-27 -18.5t-33.5 -7t-33.5 7t-27 18.5t-18.5 27t-7 33.5q0 35 25.5 59.5t60.5 24.5q86 0 86 -84zM235 -417q0 -18 -7 -33.5t-18.5 -27t-27 -18.5t-33.5 -7q-17 0 -32.5 7t-27 18.5t-18.5 27t-7 33.5t7 33t18.5 26.5t27 18t32.5 6.5 q37 0 61.5 -23.5t24.5 -60.5zM376 -589q0 -18 -7 -33.5t-18.5 -27t-27 -18.5t-33.5 -7q-17 0 -32.5 7t-27.5 18.5t-19 27t-7 33.5q0 32 26 58t60 26q86 0 86 -84z" />
<glyph unicode="&#x5bc;" horiz-adv-x="2" d="M86 457q0 -18 -7 -33.5t-18.5 -27t-27 -18.5t-33.5 -7q-17 0 -32.5 7t-27.5 18.5t-19 27t-7 33.5q0 32 27 58q28 26 59 26q37 0 61.5 -23.5t24.5 -60.5z" />
<glyph unicode="&#x5bd;" horiz-adv-x="2" d="M67 -587q0 -27 -31 -27h-65q-31 0 -31 27v383q0 26 31 26h65q31 0 31 -26v-383z" />
<glyph unicode="&#x5be;" horiz-adv-x="591" d="M509 819h-415v277h415v-277z" />
<glyph unicode="&#x5bf;" horiz-adv-x="591" d="M509 819h-415v277h415v-277z" />
<glyph unicode="&#x5c0;" horiz-adv-x="528" d="M354 -381h-180v1851h180v-1851z" />
<glyph unicode="&#x5c1;" horiz-adv-x="2" d="M1366 1322q0 -18 -7 -33.5t-18.5 -27t-27 -18.5t-33.5 -7q-17 0 -32.5 7t-27.5 18.5t-19 27t-7 33.5q0 16 7 31.5t19 27t27.5 18.5t32.5 7q39 0 62.5 -23.5t23.5 -60.5z" />
<glyph unicode="&#x5c2;" horiz-adv-x="2" d="M346 1322q0 -18 -7 -33.5t-18.5 -27t-27 -18.5t-33.5 -7q-17 0 -32.5 7t-27.5 18.5t-19 27t-7 33.5q0 16 7 31.5t19 27t27.5 18.5t32.5 7q39 0 62.5 -23.5t23.5 -60.5z" />
<glyph unicode="&#x5c3;" horiz-adv-x="528" d="M401 829q0 -36 -11.5 -64t-32.5 -48t-49.5 -30.5t-61.5 -10.5q-76 0 -113 40.5t-37 112.5t36 115t114 43q75 0 115 -44t40 -114zM401 145q0 -72 -44 -111.5t-111 -39.5q-76 0 -113 41t-37 110q0 72 36 115t114 43q75 0 115 -43t40 -115z" />
<glyph unicode="&#x5c4;" horiz-adv-x="2" d="M90 1322q0 -18 -7 -33.5t-18.5 -27t-27 -18.5t-33.5 -7q-17 0 -32.5 7t-27.5 18.5t-19 27t-7 33.5q0 16 7 31.5t19 27t27.5 18.5t32.5 7q39 0 62.5 -23.5t23.5 -60.5z" />
<glyph unicode="&#x5d0;" horiz-adv-x="1200" d="M1168 0h-358l-348 508l-111 -508h-309v33l197 735l-199 303v25h367l301 -437h4l92 437h311v-41l-203 -652l256 -378v-25z" />
<glyph unicode="&#x5d1;" horiz-adv-x="1114" d="M1056 0h-981v276h535v388q0 75 -26 115t-97 40h-408v277h518q90 0 157 -21t111.5 -66t66.5 -116t22 -170v-447h102v-276z" />
<glyph unicode="&#x5d2;" horiz-adv-x="868" d="M773 0h-268l-41 295h-24q-11 -42 -23.5 -81.5t-26.5 -76.5q-29 -74 -63 -104q-47 -41 -85 -50q-36 -10 -83 -10q-25 0 -49.5 8.5t-38.5 22.5v334q27 -19 53.5 -24t63.5 -5q39 0 82 21.5t79.5 62.5t60 101.5t23.5 138.5q0 108 -49 157.5t-127 49.5q-41 0 -71.5 -6.5 t-65.5 -22.5v258q33 14 97 25.5t155 11.5q114 0 190.5 -29.5t123.5 -84t67 -131.5t20 -171v-690z" />
<glyph unicode="&#x5d3;" horiz-adv-x="1071" d="M983 819h-129v-819h-342v819h-467v277h938v-277z" />
<glyph unicode="&#x5d4;" horiz-adv-x="1228" d="M1130 0h-344v664q0 75 -25.5 115t-97.5 40h-561v277h672q179 0 268 -87q88 -87 88 -286v-723zM454 0h-342v641h342v-641z" />
<glyph unicode="&#x5d5;" horiz-adv-x="555" d="M448 0h-342v1096h342v-1096z" />
<glyph unicode="&#x5d6;" horiz-adv-x="745" d="M683 844l-129 -23q-104 -17 -86 -190l64 -631h-334l-35 303q-8 69 -7.5 133.5t8.5 126.5t34 125.5t69 130.5h-186v277h602v-252z" />
<glyph unicode="&#x5d7;" horiz-adv-x="1245" d="M1144 0h-344v680q0 75 -24 107q-23 32 -95 32h-233v-819h-342v819v277h698q90 0 154.5 -23t106 -70.5t60.5 -120t19 -171.5v-711z" />
<glyph unicode="&#x5d8;" horiz-adv-x="1302" d="M1208 977l-24 -586q-5 -121 -53 -210t-152 -138q-39 -18 -89.5 -28.5t-102.5 -16t-101 -7t-86 -1.5q-56 0 -120 2t-127 6.5t-119 12t-95 18.5l-45 1067h348l25 -838q13 -3 37 -5t49.5 -3.5t49 -1.5h34.5q123 0 169 34t48 117l6 420h-236v277h584v-119z" />
<glyph unicode="&#x5d9;" horiz-adv-x="526" d="M434 430h-342v666h342v-666z" />
<glyph unicode="&#x5da;" horiz-adv-x="1026" d="M925 -338h-344v993q0 76 -31.5 120t-107.5 44h-373v277h492q181 0 272.5 -105t91.5 -305v-1024z" />
<glyph unicode="&#x5db;" horiz-adv-x="1024" d="M964 565q0 -236 -90 -372q-72 -111 -190.5 -161t-284.5 -50q-49 0 -102.5 3t-100.5 8t-84 11t-53 12v273q19 -4 49.5 -9.5t67.5 -10t78 -8t81 -3.5q85 0 146 24.5t94 82.5q28 49 33 90q2 20 3 45.5t1 56.5q0 153 -77 224t-200 71q-33 0 -70.5 -3t-73.5 -9.5t-68.5 -15.5 t-57.5 -21v270q27 12 73.5 21t98 15t101.5 8.5t86 2.5q256 0 398 -136t142 -419z" />
<glyph unicode="&#x5dc;" horiz-adv-x="1060" d="M962 948l-35 -438q-12 -139 -46.5 -236.5t-99.5 -159t-165 -90t-242 -28.5q-16 0 -50 2t-68 10v254q8 -1 19.5 -1.5t27.5 -0.5h55q56 0 99 9.5t73 36t47 72.5t21 120l22 321h-561v549h342v-272h561v-148z" />
<glyph unicode="&#x5dd;" horiz-adv-x="1245" d="M1145 0h-168h-177h-360h-137h-205v819v277h707q180 0 260 -89t80 -288v-719zM800 279v401q0 75 -24 107q-23 32 -94 32h-242v-540h360z" />
<glyph unicode="&#x5de;" horiz-adv-x="1298" d="M1202 0h-606v276h270v383q0 60 -13.5 98.5t-37 60t-55 30t-66.5 8.5q-24 0 -52 -10t-55 -26.5t-51.5 -38.5t-40.5 -46l-67 -735h-334l55 522q8 68 9 123t-5.5 104t-20 94.5t-34.5 94.5l-47 111v47h293l61 -84q92 49 179.5 75.5t189.5 26.5q227 0 327 -100 q101 -99 101 -326v-688z" />
<glyph unicode="&#x5df;" horiz-adv-x="546" d="M444 -338h-342v1434h342v-1434z" />
<glyph unicode="&#x5e0;" horiz-adv-x="796" d="M698 0h-625v276h291v400q0 100 -44 136t-116 36q-8 0 -20 -1.5t-25 -4.5t-26 -7t-23 -10v252q40 21 102 27q61 6 115 6q181 0 276 -95.5t95 -293.5v-721z" />
<glyph unicode="&#x5e1;" horiz-adv-x="1267" d="M1212 557q0 -130 -41.5 -237.5t-116.5 -184t-180 -118.5t-231 -42q-124 0 -230 30t-184 99t-122 181t-44 276q0 126 35.5 230t105.5 178.5t175 115.5t243 41q293 0 441.5 -138t148.5 -431zM858 551q0 60 -12 119.5t-39 106t-69.5 75.5t-103.5 29q-58 0 -99.5 -28.5 t-68 -75t-39 -105.5t-12.5 -119q0 -153 58 -242q58 -90 161 -90q55 0 96.5 25t70 69t43 104.5t14.5 131.5z" />
<glyph unicode="&#x5e2;" horiz-adv-x="1224" d="M1132 1096l-20 -396q-6 -105 -16 -179t-27 -129t-41.5 -95.5t-59.5 -79.5q-33 -39 -76 -70t-93.5 -57t-107 -47.5t-116.5 -42.5q-61 -20 -128 -39.5t-133 -37t-128 -31t-113 -21.5v276q24 3 57 9.5t68 14.5t68 17t57 17l-264 891h362l199 -797q25 10 43 18.5t31 16.5 q15 9 29.5 18.5t26.5 28t19 50.5t7 85l10 580h346z" />
<glyph unicode="&#x5e3;" horiz-adv-x="1228" d="M1128 -338h-340v985q0 72 -16.5 121t-45.5 79t-68 43t-85 13q-48 0 -86.5 -15.5t-60.5 -37.5q-37 -40 -37 -100q0 -23 8 -44.5t20 -33.5h197v-250h-461l-18 22q-35 39 -54.5 101t-19.5 131q0 105 30.5 185t82.5 134q69 71 173 109q102 37 269 37q144 0 242 -34.5t158 -99 t86 -155.5t26 -205v-985z" />
<glyph unicode="&#x5e4;" horiz-adv-x="1220" d="M1157 569q0 -141 -44 -250.5t-123 -183.5t-190 -112.5t-244 -38.5q-114 0 -215.5 15t-199.5 60v252q30 -16 64.5 -28.5t77.5 -21t95 -13t115 -4.5q65 0 122.5 15t101 49t68.5 87.5t25 130.5v45q0 163 -66 249q-64 85 -169 85q-100 0 -143 -49q-37 -40 -37 -98 q0 -23 8 -45.5t20 -34.5h209v-248h-473l-18 21q-35 42 -54.5 103.5t-19.5 127.5q0 105 30.5 183t82.5 132q36 36 77.5 63.5t92 46.5t111 28.5t132.5 9.5q135 0 240 -36.5t177 -109t109.5 -180.5t37.5 -250z" />
<glyph unicode="&#x5e5;" horiz-adv-x="1093" d="M1032 1059l-271 -680l-20 -53l254 -641v-23h-330l-223 574q-14 35 -34 77.5t-45 94.5t-52.5 106.5t-57.5 112.5q-59 117 -122 232q-31 58 -58.5 111t-52.5 101v25h348l219 -437l142 437h303v-37z" />
<glyph unicode="&#x5e6;" horiz-adv-x="1134" d="M1066 1057l-227 -627l205 -328v-102h-940v276h473l-543 779v41h369l243 -391l117 391h303v-39z" />
<glyph unicode="&#x5e7;" horiz-adv-x="1267" d="M1189 745q0 -74 -25 -158q-12 -43 -27 -82t-32 -75l-215 -430h-336v27l228 438q32 61 51.5 117.5t19.5 99.5q0 24 -8 48.5t-24.5 44t-41.5 32t-59 12.5h-608v277h676q147 0 236 -51.5t130 -139.5q17 -33 26 -75.5t9 -84.5zM466 -338h-336v1002h336v-1002z" />
<glyph unicode="&#x5e8;" horiz-adv-x="1015" d="M915 0h-344v655q0 39 -6.5 69.5t-22.5 51.5t-43 32t-67 11h-375v277h498q181 0 270.5 -103t89.5 -303v-690z" />
<glyph unicode="&#x5e9;" horiz-adv-x="1566" d="M1472 1096l-30 -549q-4 -82 -16.5 -161t-39.5 -140q-32 -77 -83.5 -128.5t-131.5 -83.5t-192.5 -45.5t-267.5 -13.5q-176 0 -315 15.5t-226 36.5l-80 1069h340l35 -541q34 0 61.5 3.5t46.5 17t29 41t10 75.5l8 404h322l-14 -408q-4 -92 -28.5 -150.5t-67 -92t-101.5 -46 t-133 -12.5q-5 0 -23 -0.5t-38.5 -0.5t-38.5 0.5t-23 2.5l10 -133q15 -4 42.5 -7t60 -5t66.5 -3t61 -1q77 0 136 4.5t102 12.5q84 16 122 89q35 75 41 215l25 535h331z" />
<glyph unicode="&#x5ea;" horiz-adv-x="1316" d="M1218 0h-344v676q0 38 -5 65t-18.5 44.5t-36.5 25.5t-59 8h-217v-479q0 -59 -5 -102t-16 -76t-28 -58t-41 -47q-47 -47 -110.5 -64.5t-147.5 -17.5q-42 0 -87 16q-47 15 -69 34v237q46 -29 78 -29q48 0 69 24t21 79v760h141h195h340q180 0 260 -89t80 -288v-719z" />
<glyph unicode="&#x5f0;" horiz-adv-x="700" d="M609 712q0 -110 -77 -187q-76 -76 -187 -76q-108 0 -185 77t-77 186q0 110 77 187t185 77q110 0 187 -77t77 -187zM536 712q0 81 -56 137q-55 55 -135 55t-135 -55t-55 -137q0 -79 55 -135q56 -56 135 -56t135 56q56 58 56 135z" />
<glyph unicode="&#x5f1;" horiz-adv-x="700" d="M609 712q0 -110 -77 -187q-76 -76 -187 -76q-108 0 -185 77t-77 186q0 110 77 187t185 77q110 0 187 -77t77 -187zM536 712q0 81 -56 137q-55 55 -135 55t-135 -55t-55 -137q0 -79 55 -135q56 -56 135 -56t135 56q56 58 56 135z" />
<glyph unicode="&#x5f2;" horiz-adv-x="700" d="M609 712q0 -110 -77 -187q-76 -76 -187 -76q-108 0 -185 77t-77 186q0 110 77 187t185 77q110 0 187 -77t77 -187zM536 712q0 81 -56 137q-55 55 -135 55t-135 -55t-55 -137q0 -79 55 -135q56 -56 135 -56t135 56q56 58 56 135z" />
<glyph unicode="&#x5f3;" horiz-adv-x="362" d="M308 1018q0 -114 -56 -197q-28 -42 -65 -80.5t-83 -76.5l-62 57q46 52 57 93q11 42 11 77q0 19 -16 51q-14 31 -29 51q-17 23 -23 46.5t-6 52.5q0 51 36 83q36 33 83 33q71 0 112 -54q41 -55 41 -136z" />
<glyph unicode="&#x5f4;" horiz-adv-x="702" d="M651 1018q0 -114 -56 -197q-54 -81 -149 -157l-63 57q48 51 59 93t11 77q0 19 -16 51q-15 33 -30 51q-16 23 -22 46.5t-6 52.5q0 51 36 83q36 33 83 33q71 0 112 -54q41 -55 41 -136zM315 1018q0 -106 -56 -192q-55 -84 -140 -162l-64 57q23 28 38 50.5t20 41.5 q12 37 12 78q0 15 -18 50q-8 17 -16 30t-15 22q-31 46 -31 99q0 51 38 83q37 33 85 33q70 0 108 -54q39 -54 39 -136z" />
<glyph unicode="&#x2000;" horiz-adv-x="737" />
<glyph unicode="&#x2001;" horiz-adv-x="1475" />
<glyph unicode="&#x2002;" horiz-adv-x="737" />
<glyph unicode="&#x2003;" horiz-adv-x="1475" />
<glyph unicode="&#x2004;" horiz-adv-x="491" />
<glyph unicode="&#x2005;" horiz-adv-x="368" />
<glyph unicode="&#x2006;" horiz-adv-x="245" />
<glyph unicode="&#x2007;" horiz-adv-x="245" />
<glyph unicode="&#x2008;" horiz-adv-x="184" />
<glyph unicode="&#x2009;" horiz-adv-x="295" />
<glyph unicode="&#x200a;" horiz-adv-x="81" />
<glyph unicode="&#x200c;" d="M657 770q0 -119 -83 -202t-203 -83q-118 0 -200 84q-83 85 -83 201q0 118 83 203q82 84 200 84q120 0 203 -84q83 -85 83 -203zM578 770q0 88 -60 148q-58 61 -147 61q-86 0 -146 -61q-59 -61 -59 -148q0 -84 59 -146q60 -61 146 -61q89 0 147 61q60 61 60 146z" />
<glyph unicode="&#x200d;" d="M657 770q0 -119 -83 -202t-203 -83q-118 0 -200 84q-83 85 -83 201q0 118 83 203q82 84 200 84q120 0 203 -84q83 -85 83 -203zM578 770q0 88 -60 148q-58 61 -147 61q-86 0 -146 -61q-59 -61 -59 -148q0 -84 59 -146q60 -61 146 -61q89 0 147 61q60 61 60 146z" />
<glyph unicode="&#x200e;" d="M657 770q0 -119 -83 -202t-203 -83q-118 0 -200 84q-83 85 -83 201q0 118 83 203q82 84 200 84q120 0 203 -84q83 -85 83 -203zM578 770q0 88 -60 148q-58 61 -147 61q-86 0 -146 -61q-59 -61 -59 -148q0 -84 59 -146q60 -61 146 -61q89 0 147 61q60 61 60 146z" />
<glyph unicode="&#x200f;" d="M657 770q0 -119 -83 -202t-203 -83q-118 0 -200 84q-83 85 -83 201q0 118 83 203q82 84 200 84q120 0 203 -84q83 -85 83 -203zM578 770q0 88 -60 148q-58 61 -147 61q-86 0 -146 -61q-59 -61 -59 -148q0 -84 59 -146q60 -61 146 -61q89 0 147 61q60 61 60 146z" />
<glyph unicode="&#x2010;" horiz-adv-x="954" d="M862 414h-768v260h768v-260z" />
<glyph unicode="&#x2011;" horiz-adv-x="954" d="M862 414h-768v260h768v-260z" />
<glyph unicode="&#x2012;" horiz-adv-x="954" d="M862 414h-768v260h768v-260z" />
<glyph unicode="&#x2013;" horiz-adv-x="954" d="M862 414h-768v260h768v-260z" />
<glyph unicode="&#x2014;" horiz-adv-x="1255" d="M1162 414h-1068v260h1068v-260z" />
<glyph unicode="&#x2018;" horiz-adv-x="362" d="M36 854q0 114 56 197q28 42 65 80.5t83 76.5l62 -57q-48 -54 -58 -93t-10 -77q0 -18 15 -51q16 -33 30 -51q17 -23 23 -46.5t6 -52.5q0 -51 -36 -84q-37 -32 -83 -32q-72 0 -112 54q-41 55 -41 136z" />
<glyph unicode="&#x2019;" horiz-adv-x="362" d="M308 1018q0 -114 -56 -197q-28 -42 -65 -80.5t-83 -76.5l-62 57q46 52 57 93q11 42 11 77q0 19 -16 51q-14 31 -29 51q-17 23 -23 46.5t-6 52.5q0 51 36 83q36 33 83 33q71 0 112 -54q41 -55 41 -136z" />
<glyph unicode="&#x201c;" horiz-adv-x="702" d="M45 854q0 114 56 197q54 81 149 157l63 -57q-50 -53 -60 -93q-10 -39 -10 -77q0 -18 15 -51q17 -35 31 -51q16 -23 22 -46.5t6 -52.5q0 -51 -36 -84q-37 -32 -83 -32q-72 0 -112 54q-41 55 -41 136zM381 854q0 106 56 192q55 84 140 162l64 -57q-48 -57 -59 -92 q-11 -39 -11 -78q0 -14 17 -50q9 -17 17 -30t15 -22q31 -46 31 -99q0 -51 -38 -84q-38 -32 -85 -32q-70 0 -109 54q-38 55 -38 136z" />
<glyph unicode="&#x201d;" horiz-adv-x="702" d="M651 1018q0 -114 -56 -197q-54 -81 -149 -157l-63 57q48 51 59 93t11 77q0 19 -16 51q-15 33 -30 51q-16 23 -22 46.5t-6 52.5q0 51 36 83q36 33 83 33q71 0 112 -54q41 -55 41 -136zM315 1018q0 -106 -56 -192q-55 -84 -140 -162l-64 57q23 28 38 50.5t20 41.5 q12 37 12 78q0 15 -18 50q-8 17 -16 30t-15 22q-31 46 -31 99q0 51 38 83q37 33 85 33q70 0 108 -54q39 -54 39 -136z" />
<glyph unicode="&#x2022;" horiz-adv-x="612" d="M524 580q0 -92 -63 -153q-62 -62 -150 -62q-89 0 -153 62q-62 62 -62 153q0 90 61 151q62 62 154 62q89 0 151 -62t62 -151z" />
<glyph unicode="&#x202f;" horiz-adv-x="295" />
<glyph unicode="&#x2039;" horiz-adv-x="681" d="M562 -8h-57l-387 473l387 469h57l-244 -469z" />
<glyph unicode="&#x203a;" horiz-adv-x="681" d="M566 463l-395 -471h-57l243 471l-243 471h57z" />
<glyph unicode="&#x205f;" horiz-adv-x="368" />
<glyph unicode="&#x20aa;" horiz-adv-x="1773" d="M1617 385q0 -123 -43 -202t-116.5 -124t-173 -62t-211.5 -17t-240 10t-270 37v675h247v-491q67 -10 142 -12q38 -1 67 -1.5t51 -0.5q86 0 141.5 9.5t88 30.5t45 54.5t12.5 81.5v706h260v-694zM1208 342h-250v338q0 115 -57 157q-56 42 -183 42q-32 0 -68.5 -1t-79.5 -3 q-85 -3 -157 -9v-866h-258v1053q67 8 133 15t135.5 12.5t144 8.5t158.5 3q130 0 221.5 -24.5t149.5 -76t84.5 -131.5t26.5 -190v-328z" />
<glyph unicode="&#x22c5;" horiz-adv-x="662" d="M565 627q0 -98 -68 -166q-68 -66 -161 -66q-99 0 -166 66q-68 68 -68 166t67 164q67 67 167 67q96 0 162 -67q67 -66 67 -164z" />
<glyph unicode="&#x25a0;" d="M657 770q0 -119 -83 -202t-203 -83q-118 0 -200 84q-83 85 -83 201q0 118 83 203q82 84 200 84q120 0 203 -84q83 -85 83 -203zM578 770q0 88 -60 148q-58 61 -147 61q-86 0 -146 -61q-59 -61 -59 -148q0 -84 59 -146q60 -61 146 -61q89 0 147 61q60 61 60 146z" />
<glyph unicode="&#x25a1;" d="M657 770q0 -119 -83 -202t-203 -83q-118 0 -200 84q-83 85 -83 201q0 118 83 203q82 84 200 84q120 0 203 -84q83 -85 83 -203zM578 770q0 88 -60 148q-58 61 -147 61q-86 0 -146 -61q-59 -61 -59 -148q0 -84 59 -146q60 -61 146 -61q89 0 147 61q60 61 60 146z" />
<glyph unicode="&#x25c6;" d="M657 770q0 -119 -83 -202t-203 -83q-118 0 -200 84q-83 85 -83 201q0 118 83 203q82 84 200 84q120 0 203 -84q83 -85 83 -203zM578 770q0 88 -60 148q-58 61 -147 61q-86 0 -146 -61q-59 -61 -59 -148q0 -84 59 -146q60 -61 146 -61q89 0 147 61q60 61 60 146z" />
<glyph unicode="&#x25c7;" d="M657 770q0 -119 -83 -202t-203 -83q-118 0 -200 84q-83 85 -83 201q0 118 83 203q82 84 200 84q120 0 203 -84q83 -85 83 -203zM578 770q0 88 -60 148q-58 61 -147 61q-86 0 -146 -61q-59 -61 -59 -148q0 -84 59 -146q60 -61 146 -61q89 0 147 61q60 61 60 146z" />
<glyph unicode="&#x25cb;" d="M657 770q0 -119 -83 -202t-203 -83q-118 0 -200 84q-83 85 -83 201q0 118 83 203q82 84 200 84q120 0 203 -84q83 -85 83 -203zM578 770q0 88 -60 148q-58 61 -147 61q-86 0 -146 -61q-59 -61 -59 -148q0 -84 59 -146q60 -61 146 -61q89 0 147 61q60 61 60 146z" />
<glyph unicode="&#x25cc;" d="M657 770q0 -119 -83 -202t-203 -83q-118 0 -200 84q-83 85 -83 201q0 118 83 203q82 84 200 84q120 0 203 -84q83 -85 83 -203zM578 770q0 88 -60 148q-58 61 -147 61q-86 0 -146 -61q-59 -61 -59 -148q0 -84 59 -146q60 -61 146 -61q89 0 147 61q60 61 60 146z" />
<glyph unicode="&#x25fc;" horiz-adv-x="500" d="M0 0v0v0v0v0z" />
<glyph unicode="&#x2605;" d="M657 770q0 -119 -83 -202t-203 -83q-118 0 -200 84q-83 85 -83 201q0 118 83 203q82 84 200 84q120 0 203 -84q83 -85 83 -203zM578 770q0 88 -60 148q-58 61 -147 61q-86 0 -146 -61q-59 -61 -59 -148q0 -84 59 -146q60 -61 146 -61q89 0 147 61q60 61 60 146z" />
<glyph unicode="&#x274f;" d="M657 770q0 -119 -83 -202t-203 -83q-118 0 -200 84q-83 85 -83 201q0 118 83 203q82 84 200 84q120 0 203 -84q83 -85 83 -203zM578 770q0 88 -60 148q-58 61 -147 61q-86 0 -146 -61q-59 -61 -59 -148q0 -84 59 -146q60 -61 146 -61q89 0 147 61q60 61 60 146z" />
<glyph unicode="&#xe802;" horiz-adv-x="1026" d="M925 -338h-344v993q0 76 -31.5 120t-107.5 44h-373v277h492q181 0 272.5 -105t91.5 -305v-1024zM369 339q0 -18 -7 -33.5t-18.5 -27t-27 -18.5t-33.5 -7t-34 7t-28 18.5t-19 27t-7 33.5t7.5 33t19.5 26.5t28 18t33 6.5q37 0 61.5 -24.5t24.5 -59.5zM369 70 q0 -17 -7 -32.5t-18.5 -27.5t-27 -19t-33.5 -7t-34 7t-28 19t-19 27.5t-7 32.5q0 18 7.5 33t19.5 26.5t28 18t33 6.5q37 0 61.5 -24.5t24.5 -59.5z" />
<glyph unicode="&#xe803;" horiz-adv-x="1026" d="M925 -338h-344v993q0 76 -31.5 120t-107.5 44h-373v277h492q181 0 272.5 -105t91.5 -305v-1024zM475 369q26 0 26 -30v-66q0 -31 -26 -31h-158q0 -48 18 -88l23 -51q8 -18 8 -35q0 -35 -24.5 -58.5t-57.5 -23.5q-17 0 -32 6.5t-26.5 18t-18 26t-6.5 31.5t8 35l22 51 q21 45 21 88h-160q-27 0 -27 31v66q0 30 27 30h383z" />
<glyph unicode="&#xe804;" horiz-adv-x="1060" d="M962 948l-35 -438q-12 -139 -46.5 -236.5t-99.5 -159t-165 -90t-242 -28.5q-16 0 -50 2t-68 10v254q8 -1 19.5 -1.5t27.5 -0.5h55q56 0 99 9.5t73 36t47 72.5t21 120l22 321h-561v549h342v-272h561v-148zM20 1322q0 -18 -7 -33.5t-18.5 -27t-27 -18.5t-33.5 -7 q-17 0 -32.5 7t-27.5 18.5t-19 27t-7 33.5q0 16 7 31.5t19 27t27.5 18.5t32.5 7q39 0 62.5 -23.5t23.5 -60.5z" />
<glyph unicode="&#xe805;" horiz-adv-x="1060" d="M962 948l-35 -438q-12 -139 -46.5 -236.5t-99.5 -159t-165 -90t-242 -28.5q-16 0 -50 2t-68 10v254q8 -1 19.5 -1.5t27.5 -0.5h55q56 0 99 9.5t73 36t47 72.5t21 120l22 321h-561v549h342v-272h561v-148zM381 547q0 -18 -7 -33.5t-18.5 -27t-27 -18.5t-33.5 -7t-33.5 7 t-27 18.5t-18.5 27t-7 33.5q0 32 27 58q28 26 59 26q37 0 61.5 -23.5t24.5 -60.5zM20 1322q0 -18 -7 -33.5t-18.5 -27t-27 -18.5t-33.5 -7q-17 0 -32.5 7t-27.5 18.5t-19 27t-7 33.5q0 16 7 31.5t19 27t27.5 18.5t32.5 7q39 0 62.5 -23.5t23.5 -60.5z" />
<glyph unicode="&#xfb1d;" horiz-adv-x="700" d="M609 712q0 -110 -77 -187q-76 -76 -187 -76q-108 0 -185 77t-77 186q0 110 77 187t185 77q110 0 187 -77t77 -187zM536 712q0 81 -56 137q-55 55 -135 55t-135 -55t-55 -137q0 -79 55 -135q56 -56 135 -56t135 56q56 58 56 135z" />
<glyph unicode="&#xfb1e;" horiz-adv-x="700" d="M609 712q0 -110 -77 -187q-76 -76 -187 -76q-108 0 -185 77t-77 186q0 110 77 187t185 77q110 0 187 -77t77 -187zM536 712q0 81 -56 137q-55 55 -135 55t-135 -55t-55 -137q0 -79 55 -135q56 -56 135 -56t135 56q56 58 56 135z" />
<glyph unicode="&#xfb1f;" horiz-adv-x="700" d="M609 712q0 -110 -77 -187q-76 -76 -187 -76q-108 0 -185 77t-77 186q0 110 77 187t185 77q110 0 187 -77t77 -187zM536 712q0 81 -56 137q-55 55 -135 55t-135 -55t-55 -137q0 -79 55 -135q56 -56 135 -56t135 56q56 58 56 135z" />
<glyph unicode="&#xfb20;" horiz-adv-x="700" d="M609 712q0 -110 -77 -187q-76 -76 -187 -76q-108 0 -185 77t-77 186q0 110 77 187t185 77q110 0 187 -77t77 -187zM536 712q0 81 -56 137q-55 55 -135 55t-135 -55t-55 -137q0 -79 55 -135q56 -56 135 -56t135 56q56 58 56 135z" />
<glyph unicode="&#xfb21;" horiz-adv-x="700" d="M609 712q0 -110 -77 -187q-76 -76 -187 -76q-108 0 -185 77t-77 186q0 110 77 187t185 77q110 0 187 -77t77 -187zM536 712q0 81 -56 137q-55 55 -135 55t-135 -55t-55 -137q0 -79 55 -135q56 -56 135 -56t135 56q56 58 56 135z" />
<glyph unicode="&#xfb22;" horiz-adv-x="700" d="M609 712q0 -110 -77 -187q-76 -76 -187 -76q-108 0 -185 77t-77 186q0 110 77 187t185 77q110 0 187 -77t77 -187zM536 712q0 81 -56 137q-55 55 -135 55t-135 -55t-55 -137q0 -79 55 -135q56 -56 135 -56t135 56q56 58 56 135z" />
<glyph unicode="&#xfb23;" horiz-adv-x="700" d="M609 712q0 -110 -77 -187q-76 -76 -187 -76q-108 0 -185 77t-77 186q0 110 77 187t185 77q110 0 187 -77t77 -187zM536 712q0 81 -56 137q-55 55 -135 55t-135 -55t-55 -137q0 -79 55 -135q56 -56 135 -56t135 56q56 58 56 135z" />
<glyph unicode="&#xfb24;" horiz-adv-x="700" d="M609 712q0 -110 -77 -187q-76 -76 -187 -76q-108 0 -185 77t-77 186q0 110 77 187t185 77q110 0 187 -77t77 -187zM536 712q0 81 -56 137q-55 55 -135 55t-135 -55t-55 -137q0 -79 55 -135q56 -56 135 -56t135 56q56 58 56 135z" />
<glyph unicode="&#xfb25;" horiz-adv-x="700" d="M609 712q0 -110 -77 -187q-76 -76 -187 -76q-108 0 -185 77t-77 186q0 110 77 187t185 77q110 0 187 -77t77 -187zM536 712q0 81 -56 137q-55 55 -135 55t-135 -55t-55 -137q0 -79 55 -135q56 -56 135 -56t135 56q56 58 56 135z" />
<glyph unicode="&#xfb26;" horiz-adv-x="700" d="M609 712q0 -110 -77 -187q-76 -76 -187 -76q-108 0 -185 77t-77 186q0 110 77 187t185 77q110 0 187 -77t77 -187zM536 712q0 81 -56 137q-55 55 -135 55t-135 -55t-55 -137q0 -79 55 -135q56 -56 135 -56t135 56q56 58 56 135z" />
<glyph unicode="&#xfb27;" horiz-adv-x="700" d="M609 712q0 -110 -77 -187q-76 -76 -187 -76q-108 0 -185 77t-77 186q0 110 77 187t185 77q110 0 187 -77t77 -187zM536 712q0 81 -56 137q-55 55 -135 55t-135 -55t-55 -137q0 -79 55 -135q56 -56 135 -56t135 56q56 58 56 135z" />
<glyph unicode="&#xfb28;" horiz-adv-x="700" d="M609 712q0 -110 -77 -187q-76 -76 -187 -76q-108 0 -185 77t-77 186q0 110 77 187t185 77q110 0 187 -77t77 -187zM536 712q0 81 -56 137q-55 55 -135 55t-135 -55t-55 -137q0 -79 55 -135q56 -56 135 -56t135 56q56 58 56 135z" />
<glyph unicode="&#xfb29;" horiz-adv-x="954" d="M915 412h-872v262h303v307h264v-307h305v-262z" />
<glyph unicode="&#xfb2a;" horiz-adv-x="1566" d="M1472 1096l-30 -549q-4 -82 -16.5 -161t-39.5 -140q-32 -77 -83.5 -128.5t-131.5 -83.5t-192.5 -45.5t-267.5 -13.5q-176 0 -315 15.5t-226 36.5l-80 1069h340l35 -541q34 0 61.5 3.5t46.5 17t29 41t10 75.5l8 404h322l-14 -408q-4 -92 -28.5 -150.5t-67 -92t-101.5 -46 t-133 -12.5q-5 0 -23 -0.5t-38.5 -0.5t-38.5 0.5t-23 2.5l10 -133q15 -4 42.5 -7t60 -5t66.5 -3t61 -1q77 0 136 4.5t102 12.5q84 16 122 89q35 75 41 215l25 535h331zM1366 1322q0 -18 -7 -33.5t-18.5 -27t-27 -18.5t-33.5 -7q-17 0 -32.5 7t-27.5 18.5t-19 27t-7 33.5 q0 16 7 31.5t19 27t27.5 18.5t32.5 7q39 0 62.5 -23.5t23.5 -60.5z" />
<glyph unicode="&#xfb2b;" horiz-adv-x="1566" d="M1472 1096l-30 -549q-4 -82 -16.5 -161t-39.5 -140q-32 -77 -83.5 -128.5t-131.5 -83.5t-192.5 -45.5t-267.5 -13.5q-176 0 -315 15.5t-226 36.5l-80 1069h340l35 -541q34 0 61.5 3.5t46.5 17t29 41t10 75.5l8 404h322l-14 -408q-4 -92 -28.5 -150.5t-67 -92t-101.5 -46 t-133 -12.5q-5 0 -23 -0.5t-38.5 -0.5t-38.5 0.5t-23 2.5l10 -133q15 -4 42.5 -7t60 -5t66.5 -3t61 -1q77 0 136 4.5t102 12.5q84 16 122 89q35 75 41 215l25 535h331zM346 1322q0 -18 -7 -33.5t-18.5 -27t-27 -18.5t-33.5 -7q-17 0 -32.5 7t-27.5 18.5t-19 27t-7 33.5 q0 16 7 31.5t19 27t27.5 18.5t32.5 7q39 0 62.5 -23.5t23.5 -60.5z" />
<glyph unicode="&#xfb2c;" horiz-adv-x="1566" d="M1472 1096l-30 -549q-4 -82 -16.5 -161t-39.5 -140q-32 -77 -83.5 -128.5t-131.5 -83.5t-192.5 -45.5t-267.5 -13.5q-176 0 -315 15.5t-226 36.5l-80 1069h340l35 -541q34 0 61.5 3.5t46.5 17t29 41t10 75.5l8 404h322l-14 -408q-4 -92 -28.5 -150.5t-67 -92t-101.5 -46 t-133 -12.5q-5 0 -23 -0.5t-38.5 -0.5t-38.5 0.5t-23 2.5l10 -133q15 -4 42.5 -7t60 -5t66.5 -3t61 -1q77 0 136 4.5t102 12.5q84 16 122 89q35 75 41 215l25 535h331zM1366 1322q0 -18 -7 -33.5t-18.5 -27t-27 -18.5t-33.5 -7q-17 0 -32.5 7t-27.5 18.5t-19 27t-7 33.5 q0 16 7 31.5t19 27t27.5 18.5t32.5 7q39 0 62.5 -23.5t23.5 -60.5zM1056 423q0 -18 -7 -33.5t-18.5 -27t-27 -18.5t-33.5 -7t-33.5 7t-27 18.5t-18.5 27t-7 33.5q0 32 27 58q28 26 59 26q37 0 61.5 -23.5t24.5 -60.5z" />
<glyph unicode="&#xfb2d;" horiz-adv-x="1566" d="M1472 1096l-30 -549q-4 -82 -16.5 -161t-39.5 -140q-32 -77 -83.5 -128.5t-131.5 -83.5t-192.5 -45.5t-267.5 -13.5q-176 0 -315 15.5t-226 36.5l-80 1069h340l35 -541q34 0 61.5 3.5t46.5 17t29 41t10 75.5l8 404h322l-14 -408q-4 -92 -28.5 -150.5t-67 -92t-101.5 -46 t-133 -12.5q-5 0 -23 -0.5t-38.5 -0.5t-38.5 0.5t-23 2.5l10 -133q15 -4 42.5 -7t60 -5t66.5 -3t61 -1q77 0 136 4.5t102 12.5q84 16 122 89q35 75 41 215l25 535h331zM346 1322q0 -18 -7 -33.5t-18.5 -27t-27 -18.5t-33.5 -7q-17 0 -32.5 7t-27.5 18.5t-19 27t-7 33.5 q0 16 7 31.5t19 27t27.5 18.5t32.5 7q39 0 62.5 -23.5t23.5 -60.5zM1056 423q0 -18 -7 -33.5t-18.5 -27t-27 -18.5t-33.5 -7t-33.5 7t-27 18.5t-18.5 27t-7 33.5q0 32 27 58q28 26 59 26q37 0 61.5 -23.5t24.5 -60.5z" />
<glyph unicode="&#xfb31;" horiz-adv-x="1114" d="M1056 0h-981v276h535v388q0 75 -26 115t-97 40h-408v277h518q90 0 157 -21t111.5 -66t66.5 -116t22 -170v-447h102v-276zM365 531q0 -18 -7 -33.5t-18.5 -27t-27 -18.5t-33.5 -7t-33.5 7t-27 18.5t-18.5 27t-7 33.5q0 32 27 58q28 26 59 26q37 0 61.5 -23.5t24.5 -60.5z " />
<glyph unicode="&#xfb32;" horiz-adv-x="868" d="M773 0h-268l-41 295h-24q-11 -42 -23.5 -81.5t-26.5 -76.5q-29 -74 -63 -104q-47 -41 -85 -50q-36 -10 -83 -10q-25 0 -49.5 8.5t-38.5 22.5v334q27 -19 53.5 -24t63.5 -5q39 0 82 21.5t79.5 62.5t60 101.5t23.5 138.5q0 108 -49 157.5t-127 49.5q-41 0 -71.5 -6.5 t-65.5 -22.5v258q33 14 97 25.5t155 11.5q114 0 190.5 -29.5t123.5 -84t67 -131.5t20 -171v-690zM298 568q0 -18 -7 -33.5t-18.5 -27t-27 -18.5t-33.5 -7t-33.5 7t-27 18.5t-18.5 27t-7 33.5q0 32 27 58q28 26 59 26q37 0 61.5 -23.5t24.5 -60.5z" />
<glyph unicode="&#xfb33;" horiz-adv-x="1071" d="M983 819h-129v-819h-342v819h-467v277h938v-277zM337 483q0 -18 -7 -33.5t-18.5 -27t-27 -18.5t-33.5 -7t-33.5 7t-27 18.5t-18.5 27t-7 33.5q0 32 27 58q28 26 59 26q37 0 61.5 -23.5t24.5 -60.5z" />
<glyph unicode="&#xfb34;" horiz-adv-x="1228" d="M1130 0h-344v664q0 75 -25.5 115t-97.5 40h-561v277h672q179 0 268 -87q88 -87 88 -286v-723zM454 0h-342v641h342v-641zM709 455q0 -18 -7 -33.5t-18.5 -27t-27 -18.5t-33.5 -7t-33.5 7t-27 18.5t-18.5 27t-7 33.5q0 32 27 58q28 26 59 26q37 0 61.5 -23.5t24.5 -60.5z " />
<glyph unicode="&#xfb35;" horiz-adv-x="555" d="M448 0h-342v1096h342v-1096zM86 558q0 -33 -22.5 -57t-53.5 -24t-53.5 24t-22.5 57q0 15 6.5 29.5t17.5 25.5t24.5 17.5t27.5 6.5q33 0 54.5 -22t21.5 -57z" />
<glyph unicode="&#xfb36;" horiz-adv-x="745" d="M683 844l-129 -23q-104 -17 -86 -190l64 -631h-334l-35 303q-8 69 -7.5 133.5t8.5 126.5t34 125.5t69 130.5h-186v277h602v-252zM115 461q0 -18 -7 -33.5t-18.5 -27t-27 -18.5t-33.5 -7t-33.5 7t-27 18.5t-18.5 27t-7 33.5q0 32 27 58q28 26 59 26q37 0 61.5 -23.5 t24.5 -60.5z" />
<glyph unicode="&#xfb38;" horiz-adv-x="1302" d="M1208 977l-24 -586q-5 -121 -53 -210t-152 -138q-39 -18 -89.5 -28.5t-102.5 -16t-101 -7t-86 -1.5q-56 0 -120 2t-127 6.5t-119 12t-95 18.5l-45 1067h348l25 -838q13 -3 37 -5t49.5 -3.5t49 -1.5h34.5q123 0 169 34t48 117l6 420h-236v277h584v-119zM745 531 q0 -18 -7 -33.5t-18.5 -27t-27 -18.5t-33.5 -7t-33.5 7t-27 18.5t-18.5 27t-7 33.5q0 32 27 58q28 26 59 26q37 0 61.5 -23.5t24.5 -60.5z" />
<glyph unicode="&#xfb39;" horiz-adv-x="526" d="M434 430h-342v666h342v-666zM75 766q0 -33 -22.5 -57t-53.5 -24t-53.5 24t-22.5 57q0 15 6.5 29.5t17.5 25.5t24.5 17.5t27.5 6.5q33 0 54.5 -22t21.5 -57z" />
<glyph unicode="&#xfb3a;" horiz-adv-x="1026" d="M925 -338h-344v993q0 76 -31.5 120t-107.5 44h-373v277h492q181 0 272.5 -105t91.5 -305v-1024zM365 508q0 -18 -7 -33.5t-18.5 -27t-27 -18.5t-33.5 -7t-33.5 7t-27 18.5t-18.5 27t-7 33.5q0 32 27 58q28 26 59 26q37 0 61.5 -23.5t24.5 -60.5z" />
<glyph unicode="&#xfb3b;" horiz-adv-x="1024" d="M964 565q0 -236 -90 -372q-72 -111 -190.5 -161t-284.5 -50q-49 0 -102.5 3t-100.5 8t-84 11t-53 12v273q19 -4 49.5 -9.5t67.5 -10t78 -8t81 -3.5q85 0 146 24.5t94 82.5q28 49 33 90q2 20 3 45.5t1 56.5q0 153 -77 224t-200 71q-33 0 -70.5 -3t-73.5 -9.5t-68.5 -15.5 t-57.5 -21v270q27 12 73.5 21t98 15t101.5 8.5t86 2.5q256 0 398 -136t142 -419zM360 544q0 -18 -7 -33.5t-18.5 -27t-27 -18.5t-33.5 -7t-33.5 7t-27 18.5t-18.5 27t-7 33.5q0 32 27 58q28 26 59 26q37 0 61.5 -23.5t24.5 -60.5z" />
<glyph unicode="&#xfb3c;" horiz-adv-x="1060" d="M962 948l-35 -438q-12 -139 -46.5 -236.5t-99.5 -159t-165 -90t-242 -28.5q-16 0 -50 2t-68 10v254q8 -1 19.5 -1.5t27.5 -0.5h55q56 0 99 9.5t73 36t47 72.5t21 120l22 321h-561v549h342v-272h561v-148zM381 547q0 -18 -7 -33.5t-18.5 -27t-27 -18.5t-33.5 -7t-33.5 7 t-27 18.5t-18.5 27t-7 33.5q0 32 27 58q28 26 59 26q37 0 61.5 -23.5t24.5 -60.5z" />
<glyph unicode="&#xfb3e;" horiz-adv-x="1298" d="M1202 0h-606v276h270v383q0 60 -13.5 98.5t-37 60t-55 30t-66.5 8.5q-24 0 -52 -10t-55 -26.5t-51.5 -38.5t-40.5 -46l-67 -735h-334l55 522q8 68 9 123t-5.5 104t-20 94.5t-34.5 94.5l-47 111v47h293l61 -84q92 49 179.5 75.5t189.5 26.5q227 0 327 -100 q101 -99 101 -326v-688zM761 531q0 -18 -7 -33.5t-18.5 -27t-27 -18.5t-33.5 -7t-33.5 7t-27 18.5t-18.5 27t-7 33.5q0 32 27 58q28 26 59 26q37 0 61.5 -23.5t24.5 -60.5z" />
<glyph unicode="&#xfb40;" horiz-adv-x="796" d="M698 0h-625v276h291v400q0 100 -44 136t-116 36q-8 0 -20 -1.5t-25 -4.5t-26 -7t-23 -10v252q40 21 102 27q61 6 115 6q181 0 276 -95.5t95 -293.5v-721zM294 542q0 -18 -7 -33.5t-18.5 -27t-27 -18.5t-33.5 -7t-33.5 7t-27 18.5t-18.5 27t-7 33.5q0 32 27 58 q28 26 59 26q37 0 61.5 -23.5t24.5 -60.5z" />
<glyph unicode="&#xfb41;" horiz-adv-x="1267" d="M1212 557q0 -130 -41.5 -237.5t-116.5 -184t-180 -118.5t-231 -42q-124 0 -230 30t-184 99t-122 181t-44 276q0 126 35.5 230t105.5 178.5t175 115.5t243 41q293 0 441.5 -138t148.5 -431zM858 551q0 60 -12 119.5t-39 106t-69.5 75.5t-103.5 29q-58 0 -99.5 -28.5 t-68 -75t-39 -105.5t-12.5 -119q0 -153 58 -242q58 -90 161 -90q55 0 96.5 25t70 69t43 104.5t14.5 131.5zM725 546q0 -18 -7 -33.5t-18.5 -27t-27 -18.5t-33.5 -7t-33.5 7t-27 18.5t-18.5 27t-7 33.5q0 32 27 58q28 26 59 26q37 0 61.5 -23.5t24.5 -60.5z" />
<glyph unicode="&#xfb43;" horiz-adv-x="1228" d="M1128 -338h-340v985q0 72 -16.5 121t-45.5 79t-68 43t-85 13q-48 0 -86.5 -15.5t-60.5 -37.5q-37 -40 -37 -100q0 -23 8 -44.5t20 -33.5h197v-250h-461l-18 22q-35 39 -54.5 101t-19.5 131q0 105 30.5 185t82.5 134q69 71 173 109q102 37 269 37q144 0 242 -34.5t158 -99 t86 -155.5t26 -205v-985zM659 785q0 -18 -7 -33.5t-18.5 -27t-27 -18.5t-33.5 -7t-33.5 7t-27 18.5t-18.5 27t-7 33.5q0 32 27 58q28 26 59 26q37 0 61.5 -23.5t24.5 -60.5z" />
<glyph unicode="&#xfb44;" horiz-adv-x="1220" d="M1157 569q0 -141 -44 -250.5t-123 -183.5t-190 -112.5t-244 -38.5q-114 0 -215.5 15t-199.5 60v252q30 -16 64.5 -28.5t77.5 -21t95 -13t115 -4.5q65 0 122.5 15t101 49t68.5 87.5t25 130.5v45q0 163 -66 249q-64 85 -169 85q-100 0 -143 -49q-37 -40 -37 -98 q0 -23 8 -45.5t20 -34.5h209v-248h-473l-18 21q-35 42 -54.5 103.5t-19.5 127.5q0 105 30.5 183t82.5 132q36 36 77.5 63.5t92 46.5t111 28.5t132.5 9.5q135 0 240 -36.5t177 -109t109.5 -180.5t37.5 -250zM665 791q0 -18 -7 -33.5t-18.5 -27t-27 -18.5t-33.5 -7t-33.5 7 t-27 18.5t-18.5 27t-7 33.5q0 32 27 58q28 26 59 26q37 0 61.5 -23.5t24.5 -60.5z" />
<glyph unicode="&#xfb46;" horiz-adv-x="1134" d="M1066 1057l-227 -627l205 -328v-102h-940v276h473l-543 779v41h369l243 -391l117 391h303v-39zM271 548q0 -18 -7 -33.5t-18.5 -27t-27 -18.5t-33.5 -7t-33.5 7t-27 18.5t-18.5 27t-7 33.5q0 32 27 58q28 26 59 26q37 0 61.5 -23.5t24.5 -60.5z" />
<glyph unicode="&#xfb47;" horiz-adv-x="1267" d="M1189 745q0 -74 -25 -158q-12 -43 -27 -82t-32 -75l-215 -430h-336v27l228 438q32 61 51.5 117.5t19.5 99.5q0 24 -8 48.5t-24.5 44t-41.5 32t-59 12.5h-608v277h676q147 0 236 -51.5t130 -139.5q17 -33 26 -75.5t9 -84.5zM466 -338h-336v1002h336v-1002zM733 576 q0 -18 -7 -33.5t-18.5 -27t-27 -18.5t-33.5 -7t-33.5 7t-27 18.5t-18.5 27t-7 33.5q0 32 27 58q28 26 59 26q37 0 61.5 -23.5t24.5 -60.5z" />
<glyph unicode="&#xfb48;" horiz-adv-x="1015" d="M915 0h-344v655q0 39 -6.5 69.5t-22.5 51.5t-43 32t-67 11h-375v277h498q181 0 270.5 -103t89.5 -303v-690zM365 481q0 -18 -7 -33.5t-18.5 -27t-27 -18.5t-33.5 -7t-33.5 7t-27 18.5t-18.5 27t-7 33.5q0 32 27 58q28 26 59 26q37 0 61.5 -23.5t24.5 -60.5z" />
<glyph unicode="&#xfb49;" horiz-adv-x="1566" d="M1472 1096l-30 -549q-4 -82 -16.5 -161t-39.5 -140q-32 -77 -83.5 -128.5t-131.5 -83.5t-192.5 -45.5t-267.5 -13.5q-176 0 -315 15.5t-226 36.5l-80 1069h340l35 -541q34 0 61.5 3.5t46.5 17t29 41t10 75.5l8 404h322l-14 -408q-4 -92 -28.5 -150.5t-67 -92t-101.5 -46 t-133 -12.5q-5 0 -23 -0.5t-38.5 -0.5t-38.5 0.5t-23 2.5l10 -133q15 -4 42.5 -7t60 -5t66.5 -3t61 -1q77 0 136 4.5t102 12.5q84 16 122 89q35 75 41 215l25 535h331zM1056 423q0 -18 -7 -33.5t-18.5 -27t-27 -18.5t-33.5 -7t-33.5 7t-27 18.5t-18.5 27t-7 33.5q0 32 27 58 q28 26 59 26q37 0 61.5 -23.5t24.5 -60.5z" />
<glyph unicode="&#xfb4a;" horiz-adv-x="1316" d="M1218 0h-344v676q0 38 -5 65t-18.5 44.5t-36.5 25.5t-59 8h-217v-479q0 -59 -5 -102t-16 -76t-28 -58t-41 -47q-47 -47 -110.5 -64.5t-147.5 -17.5q-42 0 -87 16q-47 15 -69 34v237q46 -29 78 -29q48 0 69 24t21 79v760h141h195h340q180 0 260 -89t80 -288v-719zM792 596 q0 -18 -7 -33.5t-18.5 -27t-27 -18.5t-33.5 -7t-33.5 7t-27 18.5t-18.5 27t-7 33.5q0 32 27 58q28 26 59 26q37 0 61.5 -23.5t24.5 -60.5z" />
<glyph unicode="&#xfb4b;" horiz-adv-x="555" d="M448 0h-342v1096h342v-1096zM360 1322q0 -18 -7 -33.5t-18.5 -27t-27 -18.5t-33.5 -7q-17 0 -32.5 7t-27.5 18.5t-19 27t-7 33.5q0 16 7 31.5t19 27t27.5 18.5t32.5 7q39 0 62.5 -23.5t23.5 -60.5z" />
<glyph horiz-adv-x="0" />
<glyph horiz-adv-x="700" d="M609 712q0 -110 -77 -187q-76 -76 -187 -76q-108 0 -185 77t-77 186q0 110 77 187t185 77q110 0 187 -77t77 -187zM536 712q0 81 -56 137q-55 55 -135 55t-135 -55t-55 -137q0 -79 55 -135q56 -56 135 -56t135 56q56 58 56 135z" />
<glyph horiz-adv-x="700" d="M609 712q0 -110 -77 -187q-76 -76 -187 -76q-108 0 -185 77t-77 186q0 110 77 187t185 77q110 0 187 -77t77 -187zM536 712q0 81 -56 137q-55 55 -135 55t-135 -55t-55 -137q0 -79 55 -135q56 -56 135 -56t135 56q56 58 56 135z" />
<glyph horiz-adv-x="700" d="M609 712q0 -110 -77 -187q-76 -76 -187 -76q-108 0 -185 77t-77 186q0 110 77 187t185 77q110 0 187 -77t77 -187zM536 712q0 81 -56 137q-55 55 -135 55t-135 -55t-55 -137q0 -79 55 -135q56 -56 135 -56t135 56q56 58 56 135z" />
<glyph horiz-adv-x="700" d="M609 712q0 -110 -77 -187q-76 -76 -187 -76q-108 0 -185 77t-77 186q0 110 77 187t185 77q110 0 187 -77t77 -187zM536 712q0 81 -56 137q-55 55 -135 55t-135 -55t-55 -137q0 -79 55 -135q56 -56 135 -56t135 56q56 58 56 135z" />
<glyph d="M657 770q0 -119 -83 -202t-203 -83q-118 0 -200 84q-83 85 -83 201q0 118 83 203q82 84 200 84q120 0 203 -84q83 -85 83 -203zM578 770q0 88 -60 148q-58 61 -147 61q-86 0 -146 -61q-59 -61 -59 -148q0 -84 59 -146q60 -61 146 -61q89 0 147 61q60 61 60 146z" />
<glyph d="M657 770q0 -119 -83 -202t-203 -83q-118 0 -200 84q-83 85 -83 201q0 118 83 203q82 84 200 84q120 0 203 -84q83 -85 83 -203zM578 770q0 88 -60 148q-58 61 -147 61q-86 0 -146 -61q-59 -61 -59 -148q0 -84 59 -146q60 -61 146 -61q89 0 147 61q60 61 60 146z" />
<glyph d="M657 770q0 -119 -83 -202t-203 -83q-118 0 -200 84q-83 85 -83 201q0 118 83 203q82 84 200 84q120 0 203 -84q83 -85 83 -203zM578 770q0 88 -60 148q-58 61 -147 61q-86 0 -146 -61q-59 -61 -59 -148q0 -84 59 -146q60 -61 146 -61q89 0 147 61q60 61 60 146z" />
<glyph horiz-adv-x="0" d="M934 -299q0 -39 -26 -66.5t-68 -27.5q-39 0 -65.5 27.5t-26.5 66.5t26.5 64.5t65.5 25.5t66.5 -25.5t27.5 -64.5zM934 -600q0 -42 -26 -68t-68 -26q-39 0 -65.5 26t-26.5 68q0 18 7.5 35t20 29.5t29.5 20t35 7.5q42 0 68 -26.5t26 -65.5zM639 -672h-94v445h94v-445z M418 -346h-170l-6 -100q0 -23 29 -67q30 -44 30 -65q0 -40 -26.5 -67t-65.5 -27q-20 0 -36.5 7.5t-29 20.5t-19.5 30t-7 36q0 25 30 67q31 41 31 67l-8 98h-170v119h418v-119z" />
<glyph d="M657 770q0 -119 -83 -202t-203 -83q-118 0 -200 84q-83 85 -83 201q0 118 83 203q82 84 200 84q120 0 203 -84q83 -85 83 -203zM578 770q0 88 -60 148q-58 61 -147 61q-86 0 -146 -61q-59 -61 -59 -148q0 -84 59 -146q60 -61 146 -61q89 0 147 61q60 61 60 146z" />
<glyph d="M657 770q0 -119 -83 -202t-203 -83q-118 0 -200 84q-83 85 -83 201q0 118 83 203q82 84 200 84q120 0 203 -84q83 -85 83 -203zM578 770q0 88 -60 148q-58 61 -147 61q-86 0 -146 -61q-59 -61 -59 -148q0 -84 59 -146q60 -61 146 -61q89 0 147 61q60 61 60 146z" />
<glyph d="M657 770q0 -119 -83 -202t-203 -83q-118 0 -200 84q-83 85 -83 201q0 118 83 203q82 84 200 84q120 0 203 -84q83 -85 83 -203zM578 770q0 88 -60 148q-58 61 -147 61q-86 0 -146 -61q-59 -61 -59 -148q0 -84 59 -146q60 -61 146 -61q89 0 147 61q60 61 60 146z" />
<glyph d="M657 770q0 -119 -83 -202t-203 -83q-118 0 -200 84q-83 85 -83 201q0 118 83 203q82 84 200 84q120 0 203 -84q83 -85 83 -203zM578 770q0 88 -60 148q-58 61 -147 61q-86 0 -146 -61q-59 -61 -59 -148q0 -84 59 -146q60 -61 146 -61q89 0 147 61q60 61 60 146z" />
</font>
</defs>
</svg>
